КАТАЛОГ

Администрация сайта не несёт ответственности за содержимое архивов, а так же за соблюдением авторами постов - авторских прав! Все материаллы публикуются исключительно в ознакомительных целях!

ДОМОЙ   


5-03-2010,

Муслим Магомаев - С любовью к женщине (2003)

Автор : W.A.S.P
Оцените пост!

Голосов :(0)

Муслим Магомаев - С любовью к женщине (2003)

Муслим Магомаев - С любовью к женщине (2003)
EAC-[IMAGE + *CUE-APE-LOG-Covers] | Lossless | ~395 Mb
Time total: 01:19:02 | 2003 | Genre : Retro
Трэклист:
01. (00:04:05) Муслим Магомаев - С любовью к женщине
02. (00:04:34) Муслим Магомаев - Есть глаза у цветов
03. (00:03:34) Муслим Магомаев - С женщиной наедине
04. (00:02:10) Муслим Магомаев - Разве тот мужчина
05. (00:03:15) Муслим Магомаев - Еще не вечер
06. (00:03:27) Муслим Магомаев - Одиночество женщины
07. (00:04:49) Муслим Магомаев - Колыбельная
08. (00:03:37) Муслим Магомаев - Возвращение романса
09. (00:04:17) Муслим Магомаев - Не судьба
10. (00:04:18) Муслим Магомаев - Сезон дождей
11. (00:04:42) Муслим Магомаев - Мелодия
12. (00:03:35) Муслим Магомаев - Вечерний эскиз
13. (00:04:49) Муслим Магомаев - Не покину тебя
14. (00:04:05) Муслим Магомаев - Мне тебя не понять
15. (00:04:45) Муслим Магомаев - Нам не жить друг без друга
16. (00:05:02) Муслим Магомаев - Ты ко мне не вернешься
17. (00:05:03) Муслим Магомаев - Кто отзовется
18. (00:05:26) Муслим Магомаев - Солнце любви твоей
19. (00:03:29) Муслим Магомаев - Песня тебя найдет
Муслим Магомаев - С любовью к женщине (2003)
[/spoiler]
[spoiler=EAC log]
Exact Audio Copy V0.99 prebeta 4 from 23. January 2008

EAC extraction logfile from 26. October 2008, 18:07

Муслим Магомаев / С любовью к женщине

Used drive : BENQ DVD DD DW1640 Adapter: 1 ID: 1

Read mode : Secure
Utilize accurate stream : Yes
Defeat audio cache : Yes
Make use of C2 pointers : No

Read offset correction : 618
Overread into Lead-In and Lead-Out : No
Fill up missing offset samples with silence : Yes
Delete leading and trailing silent blocks : No
Null samples used in CRC calculations : Yes
Used interface : Installed external ASPI interface

Used output format : Internal WAV Routines
Sample format : 44.100 Hz; 16 Bit; Stereo


TOC of the extracted CD

Track | Start | Length | Start sector | End sector
---------------------------------------------------------
1 | 0:00.00 | 4:07.07 | 0 | 18531
2 | 4:07.07 | 4:34.44 | 18532 | 39125
3 | 8:41.51 | 3:34.16 | 39126 | 55191
4 | 12:15.67 | 2:09.59 | 55192 | 64925
5 | 14:25.51 | 3:14.51 | 64926 | 79526
6 | 17:40.27 | 3:27.47 | 79527 | 95098
7 | 21:07.74 | 4:48.25 | 95099 | 116723
8 | 25:56.24 | 3:36.61 | 116724 | 132984
9 | 29:33.10 | 4:16.71 | 132985 | 152255
10 | 33:50.06 | 4:18.32 | 152256 | 171637
11 | 38:08.38 | 4:42.36 | 171638 | 192823
12 | 42:50.74 | 3:34.58 | 192824 | 208931
13 | 46:25.57 | 4:48.25 | 208932 | 230556
14 | 51:14.07 | 4:05.04 | 230557 | 248935
15 | 55:19.11 | 4:45.13 | 248936 | 270323
16 | 60:04.24 | 5:02.20 | 270324 | 292993
17 | 65:06.44 | 5:02.55 | 292994 | 315698
18 | 70:09.24 | 5:26.17 | 315699 | 340165
19 | 75:35.41 | 3:26.41 | 340166 | 355656


Range status and errors

Selected range

Filename J:Music LosslessМуслим Магомаев - С любовью к женщинеМуслим Магомаев - С любовью к женщине.wav

Peak level 79.4 %
Range quality 100.0 %
Test CRC 5436CA5C
Copy CRC 5436CA5C
Copy OK

No errors occurred

End of status report[/spoiler][spoiler=AR log][Verification date: 28.12.2009 1:40:24]
[Disc ID: 00339b4e-02db847b-17128613]
Track Status
01 (01/01) Accurately ripped, all offset(s) 0(1)
02 (01/01) Accurately ripped, all offset(s) 0(1)
03 (01/01) Accurately ripped, all offset(s) 0(1)
04 (01/01) Accurately ripped, all offset(s) 0(1)
05 (01/01) Accurately ripped, all offset(s) 0(1)
06 (01/01) Accurately ripped, all offset(s) 0(1)
07 (01/01) Accurately ripped, all offset(s) 0(1)
08 (01/01) Accurately ripped, all offset(s) 0(1)
09 (01/01) Accurately ripped, all offset(s) 0(1)
10 (01/01) Accurately ripped, all offset(s) 0(1)
11 (01/01) Accurately ripped, all offset(s) 0(1)
12 (01/01) Accurately ripped, all offset(s) 0(1)
13 (01/01) Accurately ripped, all offset(s) 0(1)
14 (01/01) Accurately ripped, all offset(s) 0(1)
15 (01/01) Accurately ripped, all offset(s) 0(1)
16 (01/01) Accurately ripped, all offset(s) 0(1)
17 (01/01) Accurately ripped, all offset(s) 0(1)
18 (01/01) Accurately ripped, all offset(s) 0(1)
19 (01/01) Accurately ripped, all offset(s) 0(1)

Track [ CRC32 ] [W/O NULL] [ LOG ]
-- [5436CA5C] [F58B7CA7] CRC32
01 [0191FFBF] [471FFCDE]
02 [51ED273F] [4F0F5C65]
03 [246BE9D0] [0DF7708E]
04 [520AD158] [2DC1E482]
05 [3BC5765E] [4758C118]
06 [5BDDD5F8] [3C135A9E]
07 [A4375264] [32D4812B]
08 [7A9FB780] [F525F085]
09 [5874E436] [A4C008F6]
10 [5B5476B1] [4F3E0093]
11 [ECFF616D] [3F76B815]
12 [FB48EB5C] [64C8A1BE]
13 [5E54275F] [B1921C8F]
14 [41F15E4A] [3005CD90]
15 [4FAC00B2] [A0F66BDA]
16 [A582591E] [552D0E45]
17 [5CB215CA] [78220676]
18 [536F84DF] [557D4D11]
19 [7E3E8DF9] [85A2544C][/spoiler]

Download rapidshare.com
==================================================


Исполнитель:: Муслим Магомаев
Год:©2003

Жанр:Retro


Внимание! После прослушивания , вы должны удалить скачанные файлы и приобрести лицензионные копии музыкальных материалов!

Другие новости по теме:

Уважаемый посетитель, Вы зашли на сайт как незарегистрированный пользователь.
Мы рекомендуем Вам зарегистрироваться либо войти на сайт под своим именем.

Комментарии:

Комментировать
Информация
Посетители, находящиеся в группе Гости, не могут оставлять комментарии к данной публикации.

ВХОД НА САЙТ

 


Расширенный поиск
Обратная связь
RSS новости

Рекомендуем

Фотогалерея

Фотогалерея исполнителей,групп с высоким разрешением...!

ФОТО ЗДЕСЬ| HERE >>>



Who`s Online

Сейчас на сайте: 2
Гостей: 2

Пользователи: 

- отсутствуют

Роботы: 

- отсутствуют

 Последние посетители: 

Статистика

Яндекс.Метрика

Рейтинг@Mail.ru



Rambler's Top100

Стили Музыки

MTV Video Music Awards
MTV Video Music AwardsЭМ-ТИ-ВИ ВИДЕО МЬЮЗИК ЭУОРДС (MTV Video Music Awards), ежегодная премия, вручаемая за достижения в......Далее...
ХАРД-РОК/Hard Rock
ХАРД-РОК (англ. hard rock, от hard — твердый и рок), первоначально — энергичный и жесткий рок-н-ролл ранних рокеров — ос......Далее...
Grammy
GrammyГРЭММИ , музыкальная награда Национальной академии звукозаписи США; была учреждена в 1957 году Grammy ГРЭММИ ,......Далее...
Psychedelia
PsychedeliaПСИХОДЕЛИКА, ПСИХОДЕЛИЯ (англ. psychedelia), в музыке — совокупность звуковых средств — деформированная инстр......Далее...
FUNK ROCK
FUNK ROCKFUNK ROCK Удивительный и суматошный мир фанк-рока с самого начала являл собой невероятное смешение разнообраз......Далее...
СОУЛ/soul
СОУЛ (от англ. soul — душа), разновидность ритм-энд-блюза с элементами спиричуэл.СОУЛ (от англ. soul — душа), разнови......Далее...
ЗОЛОТОЙ ГРАММОФОН
ЗОЛОТОЙ ГРАММОФОН, ежегодная российская музыкальная премия в области популярной музыки. Учредитель премии — радиостанция......Далее...
Trash/ТРЭШ
ТРЭШ (англ. trash), стилевое направление в хэви-метал, характеризующееся,ТРЭШ (англ. trash), стилевое направление в хэ......Далее...
Jazz Rock
JAZZ ROCKДля непосвященных это может стать минным полем, зато. если ступать осторожно... впрочем, вам и тогда все равно......Далее...
METAL
METAL На заре 70-х до napней с электрогитарами дошло, что рок может быть тяжелее, грязнее, громче и быстрее, чем раньше.......Далее...