КАТАЛОГ

Администрация сайта не несёт ответственности за содержимое архивов, а так же за соблюдением авторами постов - авторских прав! Все материаллы публикуются исключительно в ознакомительных целях!

ДОМОЙ   


16-04-2011,

Omega - Élő Omega Kisstadion (1979)

Автор : PHAN
Оцените пост!

Голосов :(0)

********************
Omega - Élő Omega Kisstadion (1979)
Hungaroton/1995/Hungary

Omega
EAC/CD Image/APE+CUE+LOG+Covers/472 MB+3% recovery.

Tracklist:

1. Sze-Vosztok :06:26
2. Gammapolis :05:43
3. Nem tudom a neved :08:15
4. Léna :04:44
5. Start - Időrabló :09:09
6. Éjféli koncert :03:40
7. Ezüst eső :04:47
8. Csillagok útján :11:47
9. Őrültek órája :06:04
10. Metamorfózis II. :02:54
11. Finálé :04:50
12. Metamorfózis I. :05:03
[spoiler= Log]Exact Audio Copy V0.99 prebeta 5 from 4. May 2009
Отчёт EAC об извлечении, выполненном 27. октября 2010, 0:09
Omega / ELO Omega Kisstadion '79
Дисковод: HL-DT-STDVDRAM GH20NS10 Adapter: 1 ID: 0
Режим чтения : Достоверность
Использование точного потока : Да
Отключение кэша аудио : Да
Использование указателей C2 : Нет
Коррекция смещения при чтении : 667
Способность читать области Lead-in и Lead-out : Нет
Заполнение пропущенных сэмплов тишиной : Да
Удаление блоков с тишиной в начале и конце : Нет
При вычислениях CRC использовались нулевые сэмплы : Нет
Интерфейс : Встроенный Win32-интерфейс для Win NT/2000
Выходной формат : Внутренние WAV-операции
Формат сэмплов : 44.100 Гц; 16 бит; стерео
TOC извлечённого CD

Трек | Старт | Длительность | Начальный сектор | Конечный сектор
---------------------------------------------------------------------
1 | 0:00.00 | 6:26.63 | 0 | 29012
2 | 6:26.63 | 5:43.07 | 29013 | 54744
3 | 12:09.70 | 8:15.31 | 54745 | 91900
4 | 20:25.26 | 4:44.64 | 91901 | 113264
5 | 25:10.15 | 9:09.70 | 113265 | 154509
6 | 34:20.10 | 3:40.30 | 154510 | 171039
7 | 38:00.40 | 4:47.34 | 171040 | 192598
8 | 42:47.74 | 11:47.69 | 192599 | 245692
9 | 54:35.68 | 6:04.13 | 245693 | 273005
10 | 60:40.06 | 2:54.73 | 273006 | 286128
11 | 63:35.04 | 4:50.25 | 286129 | 307903
12 | 68:25.29 | 5:03.74 | 307904 | 330702
Характеристики диапазона извлечения и сообщения об ошибках
Выбранный диапазон

Имя файла D:МузыкаOmega - ELO Kisstadion (1979) APEOmega - ELO Omega Kisstadion '79.wav

Пиковый уровень 97.7 %
Качество диапазона 100.0 %
CRC копии 21A0F0C6
Копирование... OK
Ошибок не произошло
AccurateRip: сводка

Трек 1 нет в базе данных
Трек 2 нет в базе данных
Трек 3 нет в базе данных
Трек 4 нет в базе данных
Трек 5 нет в базе данных
Трек 6 нет в базе данных
Трек 7 нет в базе данных
Трек 8 нет в базе данных
Трек 9 нет в базе данных
Трек 10 нет в базе данных
Трек 11 нет в базе данных
Трек 12 нет в базе данных
Ни одного трека нет в базе AccurateRip
Конец отчёта[/spoiler]
[spoiler= Scans+CD+Download]
Оригинальные сканы:

OmegaOmegaOmega[/spoiler]
Multiupload:
***********
RapidShare
MegaUpload
Depositfiles
Hotfile
ZShare
Uploading

*********
Внимание! У вас нет прав для просмотра скрытого текста.


Исполнитель:: Omega
Год:©1979

Жанр:Rock


Внимание! После прослушивания , вы должны удалить скачанные файлы и приобрести лицензионные копии музыкальных материалов!

Другие новости по теме:

Уважаемый посетитель, Вы зашли на сайт как незарегистрированный пользователь.
Мы рекомендуем Вам зарегистрироваться либо войти на сайт под своим именем.

Комментарии:

Комментировать
Информация
Посетители, находящиеся в группе Гости, не могут оставлять комментарии к данной публикации.

ВХОД НА САЙТ

 


Расширенный поиск
Обратная связь
RSS новости

Рекомендуем

Фотогалерея

Фотогалерея исполнителей,групп с высоким разрешением...!

ФОТО ЗДЕСЬ| HERE >>>



Who`s Online

Сейчас на сайте: 3
Гостей: 3

Пользователи: 

- отсутствуют

Роботы: 

- отсутствуют

 Последние посетители: 

Статистика

Яндекс.Метрика

Рейтинг@Mail.ru



Rambler's Top100

Стили Музыки

Jazz Rock
JAZZ ROCKДля непосвященных это может стать минным полем, зато. если ступать осторожно... впрочем, вам и тогда все равно......Далее...
Gospel
ГОСПЕЛ (англ. gospel — евангелие), представляет собой жанр сольной евангелической песни,ГОСПЕЛ (англ. gospel — еван......Далее...
HAIR METAL
Хуки, спрей для волос и "что вы себе позволяете?!" в равных пропорциях. Знакомьтесь: пышноволосые металлисты. ......Далее...
Премия "Овация"
ОВАЦИЯ, национальная российская музыкальная премия в области зрелищ и популярной музыки.Премия "Овация" ОВАЦ......Далее...
GOTH ROCK
Выпускайте летучих мышей! Эта мрачная музыка выросла как плесень на трупе панка. Ознакомьтесь с перечнем гот-рока, котор......Далее...
Eurodance
EurodanceEurodance ЕВРОДЭНС (Eurodance), собирательное название для основной массы клубной музыки Западной Европы 19......Далее...
New Age music
New Age musicНЬЮ-ЭЙДЖ (англ. new age music — музыка нового века), квазиинтеллектуальная коммерческая музыка 1980-х годов......Далее...
Grange/Гранж
GRANGE ГРАНЖ (англ. grange), стиль, появившийся в начале 1990-х гг. в результате соединения элементов панк-рока и хэви-......Далее...
АРТ-РОК
АРТ-РОК(англ. art rock, букв. — художественный рок), совокупность форм, использующих в качестве музыкальной основы сплав......Далее...
РОКАБИЛЛИ (Rockabilly)
РОКАБИЛЛИ(Rockabilly), одна из ранних форм рок-н-ролла. Основа рокабилли — соединение разновидности музыки кантри (хиллб......Далее...