КАТАЛОГ

Администрация сайта не несёт ответственности за содержимое архивов, а так же за соблюдением авторами постов - авторских прав! Все материаллы публикуются исключительно в ознакомительных целях!

ДОМОЙ   


22-06-2010,

Chuck Berry - Classic - Masters Collection (1999)

Автор : YULYS
Оцените пост!

Голосов :(1)

Chuck Berry - Classic - Masters Collection (1999)

[::Tracklist::]

1. Johnny B. Goode (Chuck Berry) - 2:43
2. Roll Over Beethoven (Chuck Berry) - 2:26
3. Maybellene (Chuck Berry) - 2:23
4. School Days (Chuck Berry) - 2:45
5. Rock And Roll Music (Chuck Berry) - 2:34
6. Oh Baby Doll (Chuck Berry) - 2:39
7. Too Much Monkey Business (Chuck Berry) - 2:58
8. Let It Rock (Chuck Berry) - 1:47
9. Carol (Chuck Berry) - 2:50
10. Sweet Little Rock And Roller (Chuck Berry) - 2:22
11. My Ding-A-Ling (Chuck Berry) - 4:20
12. Reelin' And Rockin' (Chuck Berry) - 3:18
13. No Particular Place To Go (Chuck Berry) - 2:44
14. Sweet Little Sixteen (Chuck Berry) - 3:04
15. Little Queenie (Chuck Berry) - 2:42
16. Brown Eyed Handsome Man (Chuck Berry) - 2:19
17. Nadine (Chuck Berry) - 2:34
18. Too Pooped To Pop (Billy Davis) - 2:37
19. Back In The USA (Chuck Berry) - 2:28
20. Bye Bye Johnny (Chuck Berry) - 2:08

[spoiler-LOG]Exact Audio Copy V0.99 prebeta 5 from 4. May 2009

EAC extraction logfile from 2. September 2009, 12:52

Chuck Berry / Classic

Used drive : TSSTcorpCDDVDW SH-S202J Adapter: 1 ID: 0

Read mode : Secure
Utilize accurate stream : Yes
Defeat audio cache : No
Make use of C2 pointers : No

Read offset correction : 6
Overread into Lead-In and Lead-Out : No
Fill up missing offset samples with silence : Yes
Delete leading and trailing silent blocks : No
Null samples used in CRC calculations : Yes
Used interface : Installed external ASPI interface
Gap handling : Not detected, thus appended to previous track

Used output format : Internal WAV Routines
Sample format : 44.100 Hz; 16 Bit; Stereo


TOC of the extracted CD

Track | Start | Length | Start sector | End sector
---------------------------------------------------------
1 | 0:00.00 | 2:43.10 | 0 | 12234
2 | 2:43.10 | 2:25.72 | 12235 | 23181
3 | 5:09.07 | 2:22.50 | 23182 | 33881
4 | 7:31.57 | 2:45.45 | 33882 | 46301
5 | 10:17.27 | 2:34.33 | 46302 | 57884
6 | 12:51.60 | 2:38.60 | 57885 | 69794
7 | 15:30.45 | 2:58.40 | 69795 | 83184
8 | 18:29.10 | 1:46.50 | 83185 | 91184
9 | 20:15.60 | 2:49.50 | 91185 | 103909
10 | 23:05.35 | 2:22.42 | 103910 | 114601
11 | 25:28.02 | 4:19.55 | 114602 | 134081
12 | 29:47.57 | 3:17.63 | 134082 | 148919
13 | 33:05.45 | 2:44.37 | 148920 | 161256
14 | 35:50.07 | 3:03.68 | 161257 | 175049
15 | 38:54.00 | 2:41.70 | 175050 | 187194
16 | 41:35.70 | 2:19.37 | 187195 | 197656
17 | 43:55.32 | 2:34.13 | 197657 | 209219
18 | 46:29.45 | 2:36.60 | 209220 | 220979
19 | 49:06.30 | 2:28.42 | 220980 | 232121
20 | 51:34.72 | 2:07.55 | 232122 | 241701


Track 1

Filename C:MusicaMusica_RippataTestChuck BerryClassic


Chuck Berry - Classic - Masters Collection (1999)

Внимание! У вас нет прав для просмотра скрытого текста.


Исполнитель:: Chuck Berry
Год:©1999

Жанр:Rock`N`Roll


Внимание! После прослушивания , вы должны удалить скачанные файлы и приобрести лицензионные копии музыкальных материалов!

Другие новости по теме:

Уважаемый посетитель, Вы зашли на сайт как незарегистрированный пользователь.
Мы рекомендуем Вам зарегистрироваться либо войти на сайт под своим именем.

Комментарии:

Комментировать
Информация
Посетители, находящиеся в группе Гости, не могут оставлять комментарии к данной публикации.

ВХОД НА САЙТ

 


Расширенный поиск
Обратная связь
RSS новости

Рекомендуем

Фотогалерея

Фотогалерея исполнителей,групп с высоким разрешением...!

ФОТО ЗДЕСЬ| HERE >>>



Who`s Online

Сейчас на сайте: 7
Гостей: 6

Пользователи: 

- отсутствуют

Роботы: 


 Последние посетители: 

Статистика

Яндекс.Метрика

Рейтинг@Mail.ru



Rambler's Top100

Стили Музыки

SHRED ROCK
Высокоскоростные инструменталисты, стачивающие лады гитар и палящие усилители. Это что, музыка, которую делают гитаристы......Далее...
Trash/ТРЭШ
ТРЭШ (англ. trash), стилевое направление в хэви-метал, характеризующееся,ТРЭШ (англ. trash), стилевое направление в хэ......Далее...
Jungle -Drum & Bass
Jungle(ДЖАНГЛ), стиль современной танцевальной музыки. Является сплавом европейских и африканских культурных традиций. В......Далее...
Eurodance
EurodanceEurodance ЕВРОДЭНС (Eurodance), собирательное название для основной массы клубной музыки Западной Европы 19......Далее...
КАНТРИ-ЭНД-ВЕСТЕРН
КАНТРИ-ЭНД-ВЕСТЕРН (англ. country and western, букв. — сельский и западный), собирательное название коммерциализированны......Далее...
PUNK
К середине 70-х корпоративный рок дошел до своего логического конца, и на его место пришло сырое и энергичное звучание м......Далее...
Gospel
ГОСПЕЛ (англ. gospel — евангелие), представляет собой жанр сольной евангелической песни,ГОСПЕЛ (англ. gospel — еван......Далее...
PROG ROCK
Классические шедевры с замысловатыми мелодическими линиями или до предела усложненные "от избытка ума" изначал......Далее...
БАББЛГАМ//BUBBLEGUM
БАББЛГАМBUBBLEGUM БАББЛГАМ (от англ. bubblegum — вид надувной жевательной резинки, которая при жевании образует пузыри......Далее...
ROCK SOUNDTRACKS
В 80-е кино отнюдь не грешило однородностью. Оно отличалось завидной полистилистикой, но главным в нем было, пожалуй, на......Далее...