КАТАЛОГ

Администрация сайта не несёт ответственности за содержимое архивов, а так же за соблюдением авторами постов - авторских прав! Все материаллы публикуются исключительно в ознакомительных целях!

ДОМОЙ   


2-01-2010,

Pink Cream 69 - Sonic Dynamite - 2000

Автор : PHAN
Оцените пост!

Голосов :(0)

Pink Cream 69 - Sonic Dynamite - 2000


Pink Cream 69 - Sonic Dynamite - 2000


Жанр: Melodic Hard Rock
Melodic Hard Rock
Формат: APE(Image) + Cue + Log + Scans

Битрейт аудио: Lossless

Размер архива: ~380Mb

Информация для восстановления: 3%

Лейбл: Massacre Records | Cat# MAS CD0230

Русский сайт: Pink Cream 69Tracklist:



01. Passage To Hope [1:24]

02. Seas Of Madness [5:15]

03. Followed By The Moon [4:38]

04. Sonic Dynamite [3:10]

05. The Spirit [4:42]

06. Speed Of Light [4:46]

07. Waiting For The Dawn [4:49]

08. Let The Thunder Reside [5:09]

09. Lost In Illusions [4:13]

10. Face Of An Angel [4:13]

11. Shattered Prophecy [3:51]

12. Spread Your Wings [5:01] EAC LogExact Audio Copy V0.99 prebeta 4 from 23. January 2008



Отчёт EAC об извлечении, выполненном 17. мая 2009, 15:05



Pink Cream 69 / Sonic Dynamite



Дисковод: _NEC DVD_RW ND-3550A Adapter: 0 ID: 2



Режим чтения : Достоверность

Использование точного потока : Да

Отключение кэша аудио : Да

Использование указателей C2 : Нет



Коррекция смещения при чтении : 48

Способность читать области Lead-in и Lead-out : Нет

Заполнение пропущенных сэмплов тишиной : Да

Удаление блоков с тишиной в начале и конце : Нет

При вычислениях CRC использовались нулевые сэмплы : Да

Интерфейс : Встроенный Win32-интерфейс для Win NT/2000



Выходной формат : Внутренние WAV-операции

Формат сэмплов : 44.100 Гц; 16 бит; стерео





TOC извлечённого CD



Трек | Старт | Длительность | Начальный сектор | Конечный сектор

---------------------------------------------------------------------

1 | 0:00.00 | 1:23.39 | 0 | 6263

2 | 1:23.39 | 5:15.31 | 6264 | 29919

3 | 6:38.70 | 4:38.07 | 29920 | 50776

4 | 11:17.02 | 3:10.17 | 50777 | 65043

5 | 14:27.19 | 4:41.38 | 65044 | 86156

6 | 19:08.57 | 4:45.52 | 86157 | 107583

7 | 23:54.34 | 4:48.48 | 107584 | 129231

8 | 28:43.07 | 5:09.23 | 129232 | 152429

9 | 33:52.30 | 4:12.65 | 152430 | 171394

10 | 38:05.20 | 4:13.07 | 171395 | 190376

11 | 42:18.27 | 3:50.52 | 190377 | 207678

12 | 46:09.04 | 5:01.23 | 207679 | 230276





Характеристики диапазона извлечения и сообщения об ошибках



Выбранный диапазон



Имя файла C:Documents and SettingsАдминистраторРабочий столНовая папкаPink Cream 69 - Sonic Dynamite.wav



Пиковый уровень 100.0 %

Качество диапазона 100.0 %

CRC копии E95E4ADB

Копирование... OK



Ошибок не произошло





AccurateRip: сводка



Трек 1 точное извлечение (доверие 2) [6DF97245]

Трек 2 точное извлечение (доверие 4) [E36BE64D]

Трек 3 точное извлечение (доверие 4) [11CDC459]

Трек 4 точное извлечение (доверие 4) [8C67EE0E]

Трек 5 точное извлечение (доверие 4) [6D36B270]

Трек 6 точное извлечение (доверие 4) [B3AE3300]

Трек 7 точное извлечение (доверие 4) [DA2E058D]

Трек 8 точное извлечение (доверие 4) [FABFA970]

Трек 9 точное извлечение (доверие 4) [DB94C308]

Трек 10 точное извлечение (доверие 3) [75E2C918]

Трек 11 точное извлечение (доверие 3) [A84D0285]

Трек 12 точное извлечение (доверие 3) [226C3687]



Все треки извлечены точно



Конец отчётаСодержимое архива:



1. APE file

2. CUE file

3. EAC Log file

4. Folder(~3.2Mb) with 4 jpeg files

Pink Cream 69 - Sonic Dynamite - 2000

Внимание! У вас нет прав для просмотра скрытого текста.


Исполнитель:: Pink Cream 69
Альбом:Sonic Dynamite
Год:©2000



Внимание! После прослушивания , вы должны удалить скачанные файлы и приобрести лицензионные копии музыкальных материалов!

Другие новости по теме:

Уважаемый посетитель, Вы зашли на сайт как незарегистрированный пользователь.
Мы рекомендуем Вам зарегистрироваться либо войти на сайт под своим именем.

Комментарии:

Комментировать
Информация
Посетители, находящиеся в группе Гости, не могут оставлять комментарии к данной публикации.

ВХОД НА САЙТ

 


Расширенный поиск
Обратная связь
RSS новости

Рекомендуем

Фотогалерея

Фотогалерея исполнителей,групп с высоким разрешением...!

ФОТО ЗДЕСЬ| HERE >>>



Who`s Online

Сейчас на сайте: 4
Гостей: 4

Пользователи: 

- отсутствуют

Роботы: 

- отсутствуют

 Последние посетители: 

Статистика

Яндекс.Метрика

Рейтинг@Mail.ru



Rambler's Top100

Стили Музыки

FUNK ROCK
FUNK ROCKFUNK ROCK Удивительный и суматошный мир фанк-рока с самого начала являл собой невероятное смешение разнообраз......Далее...
Gospel
ГОСПЕЛ (англ. gospel — евангелие), представляет собой жанр сольной евангелической песни,ГОСПЕЛ (англ. gospel — еван......Далее...
INDIE
От кривого, нестройного бренчания инди — к мрачному и сексуально привлекательному альт-року. Да, 80-е были десятилетием,......Далее...
POWER POP
Лукавый кузен поп-рока, пауэр-поп — один из наиболее "пестрых'' и восприимчевых к сторонним влияниям стилей......Далее...
METAL
METAL На заре 70-х до napней с электрогитарами дошло, что рок может быть тяжелее, грязнее, громче и быстрее, чем раньше.......Далее...
PROG ROCK
Классические шедевры с замысловатыми мелодическими линиями или до предела усложненные "от избытка ума" изначал......Далее...
New Wave/ НОВАЯ ВОЛНА
После панка пришла новая волна групп, настроенных делать все по-своему — и зачастую звучавших очень по-разному...НОВАЯ В......Далее...
Doo Wop
Doo Wop направление в поп-музыке, представляющее собой вокальный ритм-энд-блюз, характеризующийся подпевками a capella и......Далее...
ROCK SOUNDTRACKS
В 80-е кино отнюдь не грешило однородностью. Оно отличалось завидной полистилистикой, но главным в нем было, пожалуй, на......Далее...
THRASH METAL
Обязательные, рекомендуемые и даром не нужные образцы жанра, порожденного "бомжеватого вида Металликой" в нача......Далее...