КАТАЛОГ

Администрация сайта не несёт ответственности за содержимое архивов, а так же за соблюдением авторами постов - авторских прав! Все материаллы публикуются исключительно в ознакомительных целях!

ДОМОЙ   


28-01-2013,

Tessa Souter - Beyond The Blue (2011)

Автор :
Оцените пост!

Голосов :(0)

Tessa Souter - Beyond The Blue (2011)

Исполнитель: Tessa Souter
Альбом: Beyond The Blue
Дата: 2011
Лэйбл: Venus Records
Страна: Japan
Стиль: Vocal Jazz
Файл: Lossless
Битрейт: FLAC (.cue, log)
Время: 01:03:23
Источник: CDDA
Вес: 477 MB (+5%)
ФО: Unibites, Deposit, Letitbit, Turbobit, Galaxy-File

    ---------------------------------------------------------
        1  |  0:00.00 |  3:54.72 |         0    |    17621  
        2  |  3:54.72 |  6:01.19 |     17622    |    44715  
        3  |  9:56.16 |  6:41.54 |     44716    |    74844  
        4  | 16:37.70 |  5:31.31 |     74845    |    99700  
        5  | 22:09.26 |  5:04.08 |     99701    |   122508  
        6  | 27:13.34 |  4:43.38 |    122509    |   143771  
        7  | 31:56.72 |  7:08.12 |    143772    |   175883  
        8  | 39:05.09 |  4:37.28 |    175884    |   196686  
        9  | 43:42.37 |  4:44.53 |    196687    |   218039  
       10  | 48:27.15 |  4:22.31 |    218040    |   237720  
       11  | 52:49.46 |  5:07.41 |    237721    |   260786  
       12  | 57:57.12 |  5:26.36 |    260787    |   285272  


Track  1

     Filename E:OPENCDTessa Souter - Beyond The Blue (2012)1 - Prelude To The Sun (Beethoven's Symphony No.7, 2nd Movement).wav

     Pre-gap length  0:00:02.00

     Peak level 98.4 %
     Extraction speed 4.3 X
     Track quality 100.0 %
     Test CRC 924CEAC5
     Copy CRC 924CEAC5
     Track not present in AccurateRip database
     Copy OK

Track  2

     Filename E:OPENCDTessa Souter - Beyond The Blue (2012)2 - Beyond The Blue (Chopin's Prelude In E Minor, Opus 28, No.4).wav

     Pre-gap length  0:00:03.60

     Peak level 97.3 %
     Extraction speed 5.0 X
     Track quality 100.0 %
     Test CRC 23AEAD24
     Copy CRC 23AEAD24
     Track not present in AccurateRip database
     Copy OK

Track  3

     Filename E:OPENCDTessa Souter - Beyond The Blue (2012)3 - The Lamp Is Low (Ravel's Pavane. Adapted By Peter De Rose & Bert Shefter).wav

     Pre-gap length  0:00:03.60

     Peak level 96.8 %
     Extraction speed 5.2 X
     Track quality 99.9 %
     Test CRC 6DA0B872
     Copy CRC 6DA0B872
     Track not present in AccurateRip database
     Copy OK

Track  4

     Filename E:OPENCDTessa Souter - Beyond The Blue (2012)4 - Chiaroscuro (Tomaso Albinoni's Adagio In G Minor).wav

     Pre-gap length  0:00:03.60

     Peak level 96.9 %
     Extraction speed 6.0 X
     Track quality 100.0 %
     Test CRC 5B8C2E3B
     Copy CRC 5B8C2E3B
     Track not present in AccurateRip database
     Copy OK

Track  5

     Filename E:OPENCDTessa Souter - Beyond The Blue (2012)5 - Dance With Me (Borodin's Polovetsian Dances).wav

     Pre-gap length  0:00:03.60

     Peak level 97.4 %
     Extraction speed 5.7 X
     Track quality 99.9 %
     Test CRC ABC44D71
     Copy CRC ABC44D71
     Track not present in AccurateRip database
     Copy OK

Track  6

     Filename E:OPENCDTessa Souter - Beyond The Blue (2012)6 - Noa's Dream (Schubert's Serenade).wav

     Pre-gap length  0:00:03.60

     Peak level 98.3 %
     Extraction speed 5.9 X
     Track quality 99.9 %
     Test CRC AEA1D740
     Copy CRC AEA1D740
     Track not present in AccurateRip database
     Copy OK

Track  7

     Filename E:OPENCDTessa Souter - Beyond The Blue (2012)7 - En Aranjuez Con Tu Amor (Rodrigo's Concierto De Aranjuez).wav

     Pre-gap length  0:00:03.60

     Peak level 97.1 %
     Extraction speed 7.2 X
     Track quality 100.0 %
     Test CRC E717EEC4
     Copy CRC E717EEC4
     Track not present in AccurateRip database
     Copy OK

Track  8

     Filename E:OPENCDTessa Souter - Beyond The Blue (2012)8 - My Reverie (Debussy's Reverie. Lyric- Larry Clinton).wav

     Pre-gap length  0:00:03.60

     Peak level 100.0 %
     Extraction speed 7.2 X
     Track quality 100.0 %
     Test CRC 61EEA96B
     Copy CRC 61EEA96B
     Track not present in AccurateRip database
     Copy OK

Track  9

     Filename E:OPENCDTessa Souter - Beyond The Blue (2012)9 - Sunrise (Brahms' Symphony No.3, 3rd Movement).wav

     Pre-gap length  0:00:03.60

     Peak level 96.9 %
     Extraction speed 7.4 X
     Track quality 100.0 %
     Test CRC EF8E681B
     Copy CRC EF8E681B
     Track not present in AccurateRip database
     Copy OK

Track 10

     Filename E:OPENCDTessa Souter - Beyond The Blue (2012)10 - Baubles Bangles And Beads (Borodin's String Quartet In D, No.2, 2nd Movement. Adapted By Robert Wright & George Forrest).wav

     Pre-gap length  0:00:03.60

     Peak level 97.1 %
     Extraction speed 7.5 X
     Track quality 100.0 %
     Test CRC 8CFB5AFE
     Copy CRC 8CFB5AFE
     Track not present in AccurateRip database
     Copy OK

Track 11

     Filename E:OPENCDTessa Souter - Beyond The Blue (2012)11 - The Darkness Of Your Eyes (Faure's Pavane).wav

     Pre-gap length  0:00:03.60

     Peak level 100.0 %
     Extraction speed 7.9 X
     Track quality 100.0 %
     Test CRC 75C7140D
     Copy CRC 75C7140D
     Track not present in AccurateRip database
     Copy OK

Track 12

     Filename E:OPENCDTessa Souter - Beyond The Blue (2012)12 - Brand New Day (Faure's Elegy).wav

     Pre-gap length  0:00:03.60

     Peak level 99.4 %
     Extraction speed 8.1 X
     Track quality 100.0 %
     Test CRC FEB0D7FB
     Copy CRC FEB0D7FB
     Track not present in AccurateRip database
     Copy OK


None of the tracks are present in the AccurateRip database

No errors occurred

End of status report

---- CUETools DB Plugin V2.1.3

[CTDB TOCID: 8uQDcuq8iC12gJFZtVI3KesXmDA-] found, Submit result: already submitted
[48411c80] (2/2) Accurately ripped


==== Log checksum 07746483558EDF3D49745DE371D0D566727A73293E5379467B98AA3B3158159D ====
[/code][/spoiler]

Внимание! У вас нет прав для просмотра скрытого текста.


Исполнитель::
Альбом:



Внимание! После прослушивания , вы должны удалить скачанные файлы и приобрести лицензионные копии музыкальных материалов!

Другие новости по теме:

Уважаемый посетитель, Вы зашли на сайт как незарегистрированный пользователь.
Мы рекомендуем Вам зарегистрироваться либо войти на сайт под своим именем.

Комментарии:

Комментировать
Информация
Посетители, находящиеся в группе Гости, не могут оставлять комментарии к данной публикации.

ВХОД НА САЙТ

 


Расширенный поиск
Обратная связь
RSS новости

Рекомендуем

Фотогалерея

Фотогалерея исполнителей,групп с высоким разрешением...!

ФОТО ЗДЕСЬ| HERE >>>



Who`s Online

Сейчас на сайте: 5
Гостей: 5

Пользователи: 

- отсутствуют

Роботы: 

- отсутствуют

 Последние посетители: 

Статистика

Яндекс.Метрика

Рейтинг@Mail.ru



Rambler's Top100

Стили Музыки

Trash/ТРЭШ
ТРЭШ (англ. trash), стилевое направление в хэви-метал, характеризующееся,ТРЭШ (англ. trash), стилевое направление в хэ......Далее...
INDIE
От кривого, нестройного бренчания инди — к мрачному и сексуально привлекательному альт-року. Да, 80-е были десятилетием,......Далее...
New Age music
New Age musicНЬЮ-ЭЙДЖ (англ. new age music — музыка нового века), квазиинтеллектуальная коммерческая музыка 1980-х годов......Далее...
РИТМ-ЭНД-БЛЮЗ
РИТМ-ЭНД-БЛЮЗ РИТМ-ЭНД-БЛЮЗ (англ. rhythm and blues), одна из основных формул рока, сформированная в середине 50-х годов......Далее...
ПОП-РОК
ПОП-РОК (англ. pop rock), синтез стилистических черт рок-музыки (рок-н-ролла, бит-музыки, хэви-метала и других)ПОП-РОК ......Далее...
Jazz Rock
JAZZ ROCKДля непосвященных это может стать минным полем, зато. если ступать осторожно... впрочем, вам и тогда все равно......Далее...
MTV Video Music Awards
MTV Video Music AwardsЭМ-ТИ-ВИ ВИДЕО МЬЮЗИК ЭУОРДС (MTV Video Music Awards), ежегодная премия, вручаемая за достижения в......Далее...
Trance
Trance, стиль современной танцевальной музыки. Очень похожий на эмбиент и эйсид-хаус, транс все же мягче, чем обычное те......Далее...
ФАБРИКА ЗВЕЗД
ФАБРИКА ЗВЕЗД — музыкальный телепроект по поиску и «раскрутке» молодых и талантливых поп-исполнителей. «Фабрика Звезд» я......Далее...
SOUTHERN ROCK
★ SOUTHERN ROCK Это очень мужская музыка. В ней ощущается и слышится влияние героев американского Юга подобных кап......Далее...