КАТАЛОГ

Администрация сайта не несёт ответственности за содержимое архивов, а так же за соблюдением авторами постов - авторских прав! Все материаллы публикуются исключительно в ознакомительных целях!

ДОМОЙ   


10-06-2011,

Johann Asmundsson - So Low (2001)

Автор : swat
Оцените пост!

Голосов :(0)

Johann Asmundsson - So Low (2001)

Artist: Johann Asmundsson
Title Of Album: So Low
Year Of Release: 2001
Label: Passion Jazz
Genre: Jazz-Funk / Smooth Jazz
Format: FLAC
Bitrate: Lossless (tracks +.cue +.log)
Tracks: 13
Total Time: 55:26 min
Total Size: 378 MB
Upload: Letitbit.net, Filesonic.com

Tracklist:

01. So Low (5:01)
02. Round In Circles (4:14)
03. Touch My Soul (4:31)
04. When All Is Through (4:41)
05. To Do Or Not To Do (5:15)
06. Shake It Off (3:53)
07. Pleasure Point (4:42)
08. Was This A Dream? (4:48)
09. Chunk Stump (1:18)
10. Funky Feelin' (4:52)
11. Portugal Samba (4:45)
12. Serenity Waltz (5:15)
13. Got To Be Goin' (1:49)


EAC extraction logfile from 28. May 2011, 19:37

Johann Asmundsson / So Low

Used drive : Optiarc DVD RW AD-5200A Adapter: 0 ID: 0

Read mode : Secure
Utilize accurate stream : Yes
Defeat audio cache : Yes
Make use of C2 pointers : No

Read offset correction : 48
Overread into Lead-In and Lead-Out : No
Fill up missing offset samples with silence : Yes
Delete leading and trailing silent blocks : No
Null samples used in CRC calculations : Yes
Used interface : Native Win32 interface for Win NT & 2000
Gap handling : Appended to previous track

Used output format : User Defined Encoder
Selected bitrate : 1024 kBit/s
Quality : High
Add ID3 tag : No
Command line compressor : C:Program FilesExact Audio CopyFlacflac.exe
Additional command line options : -8 -V -T "ARTIST=%a" -T "TITLE=%t" -T "ALBUM=%g" -T "DATE=%y" -T "TRACKNUMBER=%n" -T "TOTALTRACKS=%x" -T "GENRE=%m" -T "ALBUMARTIST=%v" -T "ALBUM ARTIST=%v" -T "COMMENT=EAC FLAC -8" %s


TOC of the extracted CD

Track | Start | Length | Start sector | End sector
---------------------------------------------------------
1 | 0:00.00 | 5:02.37 | 0 | 22686
2 | 5:02.37 | 4:15.30 | 22687 | 41841
3 | 9:17.67 | 4:35.08 | 41842 | 62474
4 | 13:53.00 | 4:42.07 | 62475 | 83631
5 | 18:35.07 | 5:16.00 | 83632 | 107331
6 | 23:51.07 | 3:54.15 | 107332 | 124896
7 | 27:45.22 | 4:43.65 | 124897 | 146186
8 | 32:29.12 | 4:49.23 | 146187 | 167884
9 | 37:18.35 | 1:20.37 | 167885 | 173921
10 | 38:38.72 | 4:53.40 | 173922 | 195936
11 | 43:32.37 | 4:47.00 | 195937 | 217461
12 | 48:19.37 | 5:16.50 | 217462 | 241211
13 | 53:36.12 | 1:50.30 | 241212 | 249491


Track 1

Filename E:MUSICWAV1 - So Low.wav

Pre-gap length 0:00:02.00

Peak level 99.1 %
Track quality 99.9 %
Test CRC 22BE5547
Copy CRC 22BE5547
Track not present in AccurateRip database
Copy OK

Track 2

Filename E:MUSICWAV2 - Round In Circles.wav

Pre-gap length 0:00:01.57

Peak level 100.0 %
Track quality 100.0 %
Test CRC 16780A28
Copy CRC 16780A28
Track not present in AccurateRip database
Copy OK

Track 3

Filename E:MUSICWAV3 - Touch My Soul.wav

Pre-gap length 0:00:01.57

Peak level 99.5 %
Track quality 100.0 %
Test CRC 71EBC3E8
Copy CRC 71EBC3E8
Track not present in AccurateRip database
Copy OK

Track 4

Filename E:MUSICWAV4 - When All Is Through.wav

Pre-gap length 0:00:01.58

Peak level 92.1 %
Track quality 100.0 %
Test CRC 0B359930
Copy CRC 0B359930
Track not present in AccurateRip database
Copy OK

Track 5

Filename E:MUSICWAV5 - To Do Or Not To Do.wav

Pre-gap length 0:00:01.57

Peak level 100.0 %
Track quality 100.0 %
Test CRC A957B512
Copy CRC A957B512
Track not present in AccurateRip database
Copy OK

Track 6

Filename E:MUSICWAV6 - Shake It Off.wav

Pre-gap length 0:00:01.57

Peak level 99.4 %
Track quality 100.0 %
Test CRC 1576CD7A
Copy CRC 1576CD7A
Track not present in AccurateRip database
Copy OK

Track 7

Filename E:MUSICWAV7 - Pleasure Point.wav

Pre-gap length 0:00:01.57

Peak level 89.1 %
Track quality 100.0 %
Test CRC E89CFFF5
Copy CRC E89CFFF5
Track not present in AccurateRip database
Copy OK

Track 8

Filename E:MUSICWAV8 - Was This A Dream.wav

Pre-gap length 0:00:01.57

Peak level 99.1 %
Track quality 100.0 %
Test CRC 52594CD2
Copy CRC 52594CD2
Track not present in AccurateRip database
Copy OK

Track 9

Filename E:MUSICWAV9 - Chunk Stump.wav

Pre-gap length 0:00:01.58

Peak level 98.3 %
Track quality 100.0 %
Test CRC A30A3839
Copy CRC A30A3839
Track not present in AccurateRip database
Copy OK

Track 10

Filename E:MUSICWAV10 - Funky Feelin'.wav

Pre-gap length 0:00:01.57

Peak level 96.8 %
Track quality 99.9 %
Test CRC 748E330B
Copy CRC 748E330B
Track not present in AccurateRip database
Copy OK

Track 11

Filename E:MUSICWAV11 - Portugal Samba.wav

Pre-gap length 0:00:01.57

Peak level 98.4 %
Track quality 100.0 %
Test CRC 3D8CBEC9
Copy CRC 3D8CBEC9
Track not present in AccurateRip database
Copy OK

Track 12

Filename E:MUSICWAV12 - Serenity Waltz.wav

Pre-gap length 0:00:01.57

Peak level 77.9 %
Track quality 100.0 %
Test CRC F917A244
Copy CRC F917A244
Track not present in AccurateRip database
Copy OK

Track 13

Filename E:MUSICWAV13 - Got To Be Goin'.wav

Pre-gap length 0:00:01.57

Peak level 97.6 %
Track quality 100.0 %
Test CRC ACC74125
Copy CRC ACC74125
Track not present in AccurateRip database
Copy OK


None of the tracks are present in the AccurateRip database

No errors occurred

End of status report[/quote][/spoiler]
Log Audiochecker
[spoiler][quote]AUDIOCHECKER v2.0 beta (build 457) - by Dester - opdester@freemail.hu
~~~~~~~~~~~~~~~~~~~~~~~~~~~~~~~~~~
-=== DO NOT EDIT THIS FILE! ===-

Path: ...Johann Asmundsson - So Low (2001)

01 -=- 01 - So Low.flac -=- CDDA (100%)
02 -=- 02 - Round In Circles.flac -=- CDDA (100%)
03 -=- 03 - Touch My Soul.flac -=- CDDA (100%)
04 -=- 04 - When All Is Through.flac -=- CDDA (100%)
05 -=- 05 - To Do Or Not To Do.flac -=- CDDA (100%)
06 -=- 06 - Shake It Off.flac -=- CDDA (100%)
07 -=- 07 - Pleasure Point.flac -=- CDDA (100%)
08 -=- 08 - Was This A Dream.flac -=- CDDA (100%)
09 -=- 09 - Chunk Stump.flac -=- CDDA (100%)
10 -=- 10 - Funky Feelin'.flac -=- CDDA (99%)
11 -=- 11 - Portugal Samba.flac -=- CDDA (100%)
12 -=- 12 - Serenity Waltz.flac -=- CDDA (99%)
13 -=- 13 - Got To Be Goin'.flac -=- CDDA (100%)

Summary 99,85% CDDA

199384724[/quote][/spoiler]
DOWNLOAD
Внимание! У вас нет прав для просмотра скрытого текста.


Исполнитель::
Альбом:



Внимание! После прослушивания , вы должны удалить скачанные файлы и приобрести лицензионные копии музыкальных материалов!

Другие новости по теме:

Уважаемый посетитель, Вы зашли на сайт как незарегистрированный пользователь.
Мы рекомендуем Вам зарегистрироваться либо войти на сайт под своим именем.

Комментарии:

Комментировать
Информация
Посетители, находящиеся в группе Гости, не могут оставлять комментарии к данной публикации.

ВХОД НА САЙТ

 


Расширенный поиск
Обратная связь
RSS новости

Рекомендуем

Фотогалерея

Фотогалерея исполнителей,групп с высоким разрешением...!

ФОТО ЗДЕСЬ| HERE >>>



Who`s Online

Сейчас на сайте: 8
Гостей: 6

Пользователи: 

- отсутствуют

Роботы: 


 Последние посетители: 

Статистика

Яндекс.Метрика

Рейтинг@Mail.ru



Rambler's Top100

Стили Музыки

THRASH METAL
Обязательные, рекомендуемые и даром не нужные образцы жанра, порожденного "бомжеватого вида Металликой" в нача......Далее...
КАНТРИ-ЭНД-ВЕСТЕРН
КАНТРИ-ЭНД-ВЕСТЕРН (англ. country and western, букв. — сельский и западный), собирательное название коммерциализированны......Далее...
ИНДАСТРИЭЛ|Industrial
ИНДАСТРИЭЛ|Industrial(англ. industrial, букв. — индустриальный), музыкальный стиль, использующий синтезаторы и самодельн......Далее...
Trance
Trance, стиль современной танцевальной музыки. Очень похожий на эмбиент и эйсид-хаус, транс все же мягче, чем обычное те......Далее...
ПОСТ-ПАНК
ПОСТ-ПАНКПОСТ-ПАНК (англ. post punk — «после панка»), совокупность музыкальных форм, возникших в рок-музыке после 19......Далее...
MTV Video Music Awards
MTV Video Music AwardsЭМ-ТИ-ВИ ВИДЕО МЬЮЗИК ЭУОРДС (MTV Video Music Awards), ежегодная премия, вручаемая за достижения в......Далее...
INDIE
От кривого, нестройного бренчания инди — к мрачному и сексуально привлекательному альт-року. Да, 80-е были десятилетием,......Далее...
ЗОЛОТОЙ ГРАММОФОН
ЗОЛОТОЙ ГРАММОФОН, ежегодная российская музыкальная премия в области популярной музыки. Учредитель премии — радиостанция......Далее...
ПОП-РОК
ПОП-РОК (англ. pop rock), синтез стилистических черт рок-музыки (рок-н-ролла, бит-музыки, хэви-метала и других)ПОП-РОК ......Далее...
Independent rock
Independent rockИНДЕПЕНДЕНТ-РОК (инди-рок) (англ. independent rock — независимый рок), понятие, относящееся к исполнител......Далее...