КАТАЛОГ

Администрация сайта не несёт ответственности за содержимое архивов, а так же за соблюдением авторами постов - авторских прав! Все материаллы публикуются исключительно в ознакомительных целях!

ДОМОЙ   


30-08-2011,

The Grateful Dead Movie (1977)[DVDRip]

Автор : YULYS
Оцените пост!

Голосов :(0)

The Grateful Dead Movie (1977)[DVDRip]


The Grateful Dead Movie (1977)

Directors: Jerry Garcia and Leon Gast

The Grateful Dead Movie, released in 1977 and directed by Jerry Garcia, is a film that captures performances from the Grateful Dead's October 1974 five-night stand at the Winterland Ballroom in San Francisco. This end-of-tour run marked the beginning of an extended hiatus for the band, with no shows planned for 1975. The movie also faithfully portrays the burgeoning Deadhead scene. The film features the "Wall of Sound" concert sound system that the Dead used for all of 1974.

The lineup of the Grateful Dead at the time of The Grateful Dead Movie was: Jerry Garcia on guitar and vocals, Bob Weir on guitar and vocals, Phil Lesh on bass, Bill Kreutzmann on drums, Keith Godchaux on keyboards, and Donna Godchaux on vocals.

Media Info:
General
Complete name : J:SeedingThe Grateful Dead Movie (1977)[DVDRip][big_dad_e™]The Grateful Dead Movie (1977)[DVDRip].avi
Format : AVI
Format/Info : Audio Video Interleave
Format profile : OpenDML
File size : 1.60 GiB
Duration : 2h 13mn
Overall bit rate : 1 719 Kbps
Movie name : THE_GRATEFUL_DEAD_MOVIE_1.Title1.DVDRip
Writing application : Lavf52.78.4
Original source form/Name : THE_GRATEFUL_DEAD_MOVIE_1

Video
ID : 0
Format : MPEG-4 Visual
Format profile : Advanced Simple@L5
Format settings, BVOP : 2
Format settings, QPel : No
Format settings, GMC : No warppoints
Format settings, Matrix : Default (H.263)
Muxing mode : Packed bitstream
Codec ID : XVID
Codec ID/Hint : XviD
Duration : 2h 13mn
Bit rate : 1 385 Kbps
Width : 720 pixels
Height : 402 pixels
Display aspect ratio : 16:9
Frame rate : 23.976 fps
Color space : YUV
Chroma subsampling : 4:2:0
Bit depth : 8 bits
Scan type : Progressive
Compression mode : Lossy
Bits/(Pixel*Frame) : 0.200
Stream size : 1.29 GiB (81%)
Writing library : XviD

Audio
ID : 1
Format : MPEG Audio
Format version : Version 1
Format profile : Layer 3
Mode : Joint stereo
Codec ID : 55
Codec ID/Hint : MP3
Duration : 2h 12mn
Bit rate mode : Constant
Bit rate : 320 Kbps
Channel(s) : 2 channels
Sampling rate : 48.0 KHz
Compression mode : Lossy
Stream size : 114 MiB (7%)
Alignment : Aligned on interleaves
Interleave, duration : 64 ms (1.54 video frames)
Interleave, preload duration : 24 ms

The Grateful Dead Movie (1977)[DVDRip]
Внимание! У вас нет прав для просмотра скрытого текста.


Исполнитель::
Альбом:



Внимание! После прослушивания , вы должны удалить скачанные файлы и приобрести лицензионные копии музыкальных материалов!

Другие новости по теме:

Уважаемый посетитель, Вы зашли на сайт как незарегистрированный пользователь.
Мы рекомендуем Вам зарегистрироваться либо войти на сайт под своим именем.

Комментарии:

Комментировать
Информация
Посетители, находящиеся в группе Гости, не могут оставлять комментарии к данной публикации.

ВХОД НА САЙТ

 


Расширенный поиск
Обратная связь
RSS новости

Рекомендуем

Фотогалерея

Фотогалерея исполнителей,групп с высоким разрешением...!

ФОТО ЗДЕСЬ| HERE >>>



Who`s Online

Сейчас на сайте: 2
Гостей: 1

Пользователи: 

- отсутствуют

Роботы: 


 Последние посетители: 

Статистика

Яндекс.Метрика

Рейтинг@Mail.ru



Rambler's Top100

Стили Музыки

Psychedelia
PsychedeliaПСИХОДЕЛИКА, ПСИХОДЕЛИЯ (англ. psychedelia), в музыке — совокупность звуковых средств — деформированная инстр......Далее...
КАНТРИ-ЭНД-ВЕСТЕРН
КАНТРИ-ЭНД-ВЕСТЕРН (англ. country and western, букв. — сельский и западный), собирательное название коммерциализированны......Далее...
FUNK ROCK
FUNK ROCKFUNK ROCK Удивительный и суматошный мир фанк-рока с самого начала являл собой невероятное смешение разнообраз......Далее...
БАРД-РОК
БАРД-РОКБАРД-РОК , одно из направлений российской рок-музыки. Развивался под влиянием серьезной поэзии и особенно бар......Далее...
New Age music
New Age musicНЬЮ-ЭЙДЖ (англ. new age music — музыка нового века), квазиинтеллектуальная коммерческая музыка 1980-х годов......Далее...
SOUTHERN ROCK
★ SOUTHERN ROCK Это очень мужская музыка. В ней ощущается и слышится влияние героев американского Юга подобных кап......Далее...
ХЭВИ-МЕТАЛ
ХЭВИ-МЕТАЛ— наряду с новой волной хэви-метал — наиболее популярное, но и наиболее коммерциализированное направление в ро......Далее...
ФАБРИКА ЗВЕЗД
ФАБРИКА ЗВЕЗД — музыкальный телепроект по поиску и «раскрутке» молодых и талантливых поп-исполнителей. «Фабрика Звезд» я......Далее...
Jazz Rock
JAZZ ROCKДля непосвященных это может стать минным полем, зато. если ступать осторожно... впрочем, вам и тогда все равно......Далее...
МЮЗИКЛ
МЮЗИКЛ МЮЗИКЛ (англ. musical), музыкально-сценическое произведение, в котором используются различные средства эстрад......Далее...