КАТАЛОГ

Администрация сайта не несёт ответственности за содержимое архивов, а так же за соблюдением авторами постов - авторских прав! Все материаллы публикуются исключительно в ознакомительных целях!

ДОМОЙ   


27-06-2013,

Jon Oliva's Pain - 'Tage Mahal (2004)

Автор : Vyacheslav2007
Оцените пост!

Голосов :(0)

Jon Oliva's Pain - 'Tage Mahal (2004)

Performer: Jon Oliva's Pain
Album: 'Tage Mahal
Label: Nippon Crown. Made in Japan
Catalog #: CRCL-4833
Style: Progressive Heavy Metal
Year: 2004
Format: FLAC (image + .cue)
Bitrate: lossless
Covers: in archive
Amount of tracks: 13
Size RAR: ~ 563 mb
Recovery: 3%

Tracklist:
-----------------
01. The Dark [5:11]
02. People Say - Gimme Some Hell [4:08]
03. Guardian Of Forever [7:44]
04. Slipping Away [4:29]
05. Walk Alone [4:32]
06. The Nonsensible Ravings Of The Lunatic Mind [5:31]
07. No Escape [3:23]
08. Father, Son, Holy Ghost [5:54]
09. All The Time [4:58]
10. Nowhere To Run [5:23]
11. Pain [3:13]
12. Outside The Door [4:00]
13. Fly Away [4:11]
--------------------------
Total time [01:02:37]

[spoiler="Info"]Jon Oliva - vocals, keyboards
Matt LaPorte - guitars
Shane French - guitars
John Zahner - keyboards
Kevin Rothney - bass
Chris Kinder - drums

Guest musicians:
Steve Wacholz - drums on tracks 7, 10

&© 2004 Steamhammer, a division of SPV GmbH. 2004 Nippon Crown Co., Ltd., Japan.

Rip by Ilijan
[/spoiler][spoiler="Log EAC"]Exact Audio Copy V0.99 prebeta 5 from 4. May 2009

EAC extraction logfile from 8. April 2013, 19:51

Jon Oliva's Pain / 'Tage Mahal

Used drive : ATAPI
iHAS624
B
Adapter: 2 ID: 0

Read mode
: Secure
Utilize accurate stream : Yes
Defeat audio cache
: Yes
Make use of C2 pointers : No

Read offset correction
: 6
Overread into Lead-In and Lead-Out
: No
Fill up missing offset samples with silence : Yes
Delete leading and trailing silent blocks
: No
Null samples used in CRC calculations
: Yes
Used interface
: Installed external ASPI interface

Used output format
: User Defined Encoder
Selected bitrate
: 40 kBit/s
Quality
: High
Add ID3 tag
: No
Command line compressor
: C:Program FilesExact Audio CopyFlacflac.exe
Additional command line options : -6 -V %s
TOC of the extracted CD
Track |
Start | Length | Start sector | End sector
---------------------------------------------------------
1 | 0:00.00 | 5:11.15 |
0
|
23339
2 | 5:11.15 | 4:08.14 |
23340
|
41953
3 | 9:19.29 | 7:44.01 |
41954
|
76754
4 | 17:03.30 | 4:28.65 |
76755
|
96919
5 | 21:32.20 | 4:31.56 |
96920
|
117300
6 | 26:04.01 | 5:31.02 |
117301
|
142127
7 | 31:35.03 | 3:23.17 |
142128
|
157369
8 | 34:58.20 | 5:54.24 |
157370
|
183943
9 | 40:52.44 | 4:57.54 |
183944
|
206272
10 | 45:50.23 | 5:23.01 |
206273
|
230498
11 | 51:13.24 | 3:13.14 |
230499
|
244987
12 | 54:26.38 | 4:00.11 |
244988
|
262998
13 | 58:26.49 | 4:10.56 |
262999
|
281804
Range status and errors

Selected range
Filename D:DownloadJon Oliva's Pain - 'Tage Mahal.wav
Peak level 97.7 %
Range quality 100.0 %
Copy CRC 8A6B0ADD
Copy OK

No errors occurred
AccurateRip summary

Track 1 accurately ripped (confidence 4) [4299FDDA]
Track 2 accurately ripped (confidence 4) [AB6F3A3E]
Track 3 accurately ripped (confidence 4) [2AA473A6]
Track 4 accurately ripped (confidence 4) [72583B47]
Track 5 accurately ripped (confidence 4) [51A376C4]
Track 6 accurately ripped (confidence 4) [FD05A3C5]
Track


Исполнитель::
Альбом:



Внимание! После прослушивания , вы должны удалить скачанные файлы и приобрести лицензионные копии музыкальных материалов!

Другие новости по теме:

Уважаемый посетитель, Вы зашли на сайт как незарегистрированный пользователь.
Мы рекомендуем Вам зарегистрироваться либо войти на сайт под своим именем.

Комментарии:

Комментировать
Информация
Посетители, находящиеся в группе Гости, не могут оставлять комментарии к данной публикации.

ВХОД НА САЙТ

 


Расширенный поиск
Обратная связь
RSS новости

Рекомендуем

Фотогалерея

Фотогалерея исполнителей,групп с высоким разрешением...!

ФОТО ЗДЕСЬ| HERE >>>



Who`s Online

Сейчас на сайте: 5
Гостей: 4

Пользователи: 

- отсутствуют

Роботы: 


 Последние посетители: 

Статистика

Яндекс.Метрика

Рейтинг@Mail.ru



Rambler's Top100

Стили Музыки

Trash/ТРЭШ
ТРЭШ (англ. trash), стилевое направление в хэви-метал, характеризующееся,ТРЭШ (англ. trash), стилевое направление в хэ......Далее...
INDIE
От кривого, нестройного бренчания инди — к мрачному и сексуально привлекательному альт-року. Да, 80-е были десятилетием,......Далее...
New Age music
New Age musicНЬЮ-ЭЙДЖ (англ. new age music — музыка нового века), квазиинтеллектуальная коммерческая музыка 1980-х годов......Далее...
РИТМ-ЭНД-БЛЮЗ
РИТМ-ЭНД-БЛЮЗ РИТМ-ЭНД-БЛЮЗ (англ. rhythm and blues), одна из основных формул рока, сформированная в середине 50-х годов......Далее...
ПОП-РОК
ПОП-РОК (англ. pop rock), синтез стилистических черт рок-музыки (рок-н-ролла, бит-музыки, хэви-метала и других)ПОП-РОК ......Далее...
Jazz Rock
JAZZ ROCKДля непосвященных это может стать минным полем, зато. если ступать осторожно... впрочем, вам и тогда все равно......Далее...
MTV Video Music Awards
MTV Video Music AwardsЭМ-ТИ-ВИ ВИДЕО МЬЮЗИК ЭУОРДС (MTV Video Music Awards), ежегодная премия, вручаемая за достижения в......Далее...
Trance
Trance, стиль современной танцевальной музыки. Очень похожий на эмбиент и эйсид-хаус, транс все же мягче, чем обычное те......Далее...
ФАБРИКА ЗВЕЗД
ФАБРИКА ЗВЕЗД — музыкальный телепроект по поиску и «раскрутке» молодых и талантливых поп-исполнителей. «Фабрика Звезд» я......Далее...
SOUTHERN ROCK
★ SOUTHERN ROCK Это очень мужская музыка. В ней ощущается и слышится влияние героев американского Юга подобных кап......Далее...