КАТАЛОГ

Администрация сайта не несёт ответственности за содержимое архивов, а так же за соблюдением авторами постов - авторских прав! Все материаллы публикуются исключительно в ознакомительных целях!

ДОМОЙ   


12-06-2013,

Def Leppard - Best Of The Videos (2004) DVDRip

Автор : PHAN
Оцените пост!

Голосов :(0)

Def Leppard - Best Of The Videos (2004) DVDRip

List:
Best Of The Videos is a DVD featuring music videos by Def Leppard. This one-disc collection contains a total of 33 commercial single videos that helped jump the band to success after the release of their breakthrough 1983 album, Pyromania. The "Bringin' On the Heartbreak" video featured on the compilation, is the 1984 version.
This DVD collection was released alongside its own compilation CD album, which included various songs that were not released as singles and singles that did not have music videos made for them.
Tracklist
"Photograph"
"Rock of Ages"
"Foolin'"
"Bringin' On the Heartbreak" (2nd Version with Phil Collen)
"Animal"
"Women"
"Pour Some Sugar on Me" (U.S. Version)
"Armageddon It"
"Hysteria"
"Love Bites"
"Rocket"
"Let's Get Rocked"
"Make Love Like a Man"
"Heaven Is"
"Have You Ever Needed Someone So Bad"
"Stand Up (Kick Love into Motion)"
"Tonite"
"I Wanna Touch U"
"Two Steps Behind"
"Miss You In A Heartbeat"
"Action"
"When Love & Hate Collide" (4 minutes condensed "Epic" Version)
"Slang"
"Work It Out"
"All I Want Is Everything"
"Promises"
"Goodbye"
"Now"
"Long, Long Way to Go"
Extra features
There are 3 alternate versions of videos are access when a Def Leppard-style angular 'D' appears in the top right-hand side of the screen and the 'Play' button is pressed.
"Armageddon It" Alternate version
"When Love & Hate Collide" (8 "Epic" Version)
"Slang" Director's Cut (Audio track is slightly sped up)

List:
Def Leppard - Best Of The Videos (2004) DVDRip

List:
Format: AVI
Format/Info: Audio Video Interleave
Format profile: OpenDML
File size: 2.00 GiB
Duration: 2h 7mn
Overall bit rate: 2 245 Kbps
Movie name
: Def Leppard - Best Of The Videos (2004) DVDRip XviD AC3 peaSoup
Writing application
: Lavf53.21.0
Original source form/Name: DEF_LEPPARD
VideoID: 0
Format: MPEG-4 Visual
Format profile: Advanced Simple@L5
Format settings, BVOP: 2
Format settings, QPel: No
Format settings, GMC: No warppoints
Format settings, Matrix: Default (H.263)
Muxing mode: Packed bitstream
Codec ID: XVID
Codec ID/Hint: XviD
Duration: 2h 7mn
Bit rate: 1 978 Kbps
Width: 720 pixels
Height: 550 pixels
Display aspect ratio: 4:3
Frame rate: 25.000 fps
Color space: YUV
Chroma subsampling: 4:2:0
Bit depth: 8 bits
Scan type: Progressive
Compression mode: Lossy
Bits/(Pixel*Frame): 0.200
Stream size: 1.76 GiB (88%)
Writing library: XviD 1.2.1 (UTC 2008-12-04)
AudioID: 1
Format: AC-3
Format/Info: Audio Coding 3
Mode extension: CM (complete main)
Format settings, Endianness: Big
Codec ID: 2000
Duration: 2h 7mn
Bit rate mode: Constant
Bit rate: 256 Kbps
Channel(s): 2 channels
Channel positions: Front: L R
Sampling rate: 48.0 KHz
Bit depth: 16 bits
Compression mode: Lossy
Stream size: 233 MiB (11%)
Alignment: Aligned on interleaves
Interleave, duration: 32 ms (0.80 video frame)

Def Leppard - Best Of The Videos (2004) DVDRip
Внимание! У вас нет прав для просмотра скрытого текста.


Исполнитель:: DEF_LEPPARD
Альбом:Best Of The Videos
Год:©2004

Жанр:Hard & Heavy


Внимание! После прослушивания , вы должны удалить скачанные файлы и приобрести лицензионные копии музыкальных материалов!

Другие новости по теме:

Уважаемый посетитель, Вы зашли на сайт как незарегистрированный пользователь.
Мы рекомендуем Вам зарегистрироваться либо войти на сайт под своим именем.

Комментарии:

Комментировать
Информация
Посетители, находящиеся в группе Гости, не могут оставлять комментарии к данной публикации.

ВХОД НА САЙТ

 


Расширенный поиск
Обратная связь
RSS новости

Рекомендуем

Фотогалерея

Фотогалерея исполнителей,групп с высоким разрешением...!

ФОТО ЗДЕСЬ| HERE >>>



Who`s Online

Сейчас на сайте: 7
Гостей: 7

Пользователи: 

- отсутствуют

Роботы: 

- отсутствуют

 Последние посетители: 

Статистика

Яндекс.Метрика

Рейтинг@Mail.ru



Rambler's Top100

Стили Музыки

Grange/Гранж
GRANGE ГРАНЖ (англ. grange), стиль, появившийся в начале 1990-х гг. в результате соединения элементов панк-рока и хэви-......Далее...
Doo Wop
Doo Wop направление в поп-музыке, представляющее собой вокальный ритм-энд-блюз, характеризующийся подпевками a capella и......Далее...
МЮЗИКЛ
МЮЗИКЛ МЮЗИКЛ (англ. musical), музыкально-сценическое произведение, в котором используются различные средства эстрад......Далее...
ФАНК \FUNK
Фанк FUNKФанк FUNK ФАНК (фанки) (англ. funk — испуганный), в поп-музыке одна из форм ритм-энд-блюза. Термин родился в д......Далее...
Ambient
Ambient(ЭМБИЕНТангл. , букв. — окружающий), стиль современной электронной музыки. Основан на использовании сэмплов живой......Далее...
РОК-Н-РОЛЛ
РОК-Н-РОЛЛРОК-Н-РОЛЛ (от англ. rock and roll — раскачиваться и крутиться), наиболее ранняя форма современной поп-музыки.......Далее...
BLUES ROCK
BLUES ROCK В начале 80-х блюз вновь пережил головокружительный подъем благодаря появлению нового поколения гитаристов-в......Далее...
Grammy
GrammyГРЭММИ , музыкальная награда Национальной академии звукозаписи США; была учреждена в 1957 году Grammy ГРЭММИ ,......Далее...
ФАБРИКА ЗВЕЗД
ФАБРИКА ЗВЕЗД — музыкальный телепроект по поиску и «раскрутке» молодых и талантливых поп-исполнителей. «Фабрика Звезд» я......Далее...
THRASH METAL
Обязательные, рекомендуемые и даром не нужные образцы жанра, порожденного "бомжеватого вида Металликой" в нача......Далее...