КАТАЛОГ

Администрация сайта не несёт ответственности за содержимое архивов, а так же за соблюдением авторами постов - авторских прав! Все материаллы публикуются исключительно в ознакомительных целях!

ДОМОЙ   


15-09-2012,

Vixen - Rev It Up

Автор : Alex
Оцените пост!

Голосов :(0)

Vixen - Rev It Up

Performer: Vixen
Album: Rev It Up
Label:Emi USA
Catalog #: CDP-592923
Style: Hard'n'Heavy
Year: 1990
Format: Flac (image + .cue)
Bitrate: lossless
Covers: in archive
Amount of tracks: 11
Size RAR: ~ 418 MB
Recovery: 3%
Password: sim-sim


Vixen - Rev It Up

Vixen - Rev It Up


1. Rev It Up (5:01)
2. How Much Love (4:40)
3. Love Is A Killer (4:43)
4. Not A Minute Too Soon (4:26)
5. Streets In Paradise (4:32)
6. Hard 16 (4:05)
7. Bad Reputation (4:09)
8. Fallen Hero (5:17)
9. Only A Heartbeat Away (5:07)
10. It Wouldn't Be Love (4:42)
11. Wrecking Ball (5:12)



EAC extraction logfile from 25. August 2012, 8:48

Vixen / Rev It Up

Used drive : SAMSUNG DVD-ROM SD-616E Adapter: 3 ID: 0

Read mode : Secure
Utilize accurate stream : Yes
Defeat audio cache : No
Make use of C2 pointers : No

Read offset correction : 12
Overread into Lead-In and Lead-Out : No
Fill up missing offset samples with silence : Yes
Delete leading and trailing silent blocks : No
Null samples used in CRC calculations : Yes
Used interface : Native Win32 interface for Win NT & 2000

Used output format : User Defined Encoder
Selected bitrate : 768 kBit/s
Quality : High
Add ID3 tag : No
Command line compressor : C:Program FilesExact Audio CopyFLACFLAC.EXE
Additional command line options : -6 -V -T "ARTIST=%artist%" -T "TITLE=%title%" -T "ALBUM=%albumtitle%" -T "DATE=%year%" -T "TRACKNUMBER=%tracknr%" -T "GENRE=%genre%" -T "COMMENT=%comment%" -T "BAND=%albuminterpret%" -T "ALBUMARTIST=%albuminterpret%" -T "COMPOSER=%composer%" %haslyrics%--tag-from-file=LYRICS="%lyricsfile%"%haslyrics% -T "DISCNUMBER=Нnumber%" -T "TOTALDISCS=%totalcds%" -T "TOTALTRACKS=%numtracks%" %hascover%--picture="%coverfile%"%hascover% %source% -o Юst%


TOC of the extracted CD

Track | Start | Length | Start sector | End sector
---------------------------------------------------------
1 | 0:00.00 | 5:01.33 | 0 | 22607
2 | 5:01.33 | 4:40.60 | 22608 | 43667
3 | 9:42.18 | 4:43.22 | 43668 | 64914
4 | 14:25.40 | 4:26.43 | 64915 | 84907
5 | 18:52.08 | 4:32.67 | 84908 | 105374
6 | 23:25.00 | 4:05.60 | 105375 | 123809
7 | 27:30.60 | 4:09.33 | 123810 | 142517
8 | 31:40.18 | 5:17.27 | 142518 | 166319
9 | 36:57.45 | 5:07.48 | 166320 | 189392
10 | 42:05.18 | 4:42.12 | 189393 | 210554
11 | 46:47.30 | 5:12.20 | 210555 | 233974


Range status and errors

Selected range

Filename C:Documents and SettingsBoryaDesktopvixRevitupVixen - Rev It Up.wav

Peak level 100.0 %
Extraction speed 4.3 X
Range quality 100.0 %
Copy CRC 0D38547E
Copy OK

No errors occurred


AccurateRip summary

Track 1 accurately ripped (confidence 2) [0DBC4D7F] (AR v1)
Track 2 accurately ripped (confidence 2) [040CF97E] (AR v1)
Track 3 accurately ripped (confidence 2) [E313E475] (AR v1)
Track 4 accurately ripped (confidence 2) [BA80DE24] (AR v1)
Track 5 accurately ripped (confidence 2) [20C2D9E8] (AR v1)
Track 6 accurately ripped (confidence 2) [C1C302AE] (AR v1)
Track 7 accurately ripped (confidence 2) [557440C8] (AR v1)
Track 8 accurately ripped (confidence 2) [008F672A] (AR v1)
Track 9 accurately ripped (confidence 2) [50F3C397] (AR v1)
Track 10 accurately ripped (confidence 2) [CFEF0130] (AR v1)
Track 11 not present in database

10 track(s) accurately ripped
1 track(s) not present in the AccurateRip database

Some tracks could not be verified as accurate

End of status report

==== Log checksum FCE3EAA674502D779252611E66378AF60FA812FA0D8C1E0FAA8BD768F925FD63 ====[/spoiler]

pass: sim-sim
Vixen - Rev It Up

Внимание! У вас нет прав для просмотра скрытого текста.


Исполнитель::
Альбом:



Внимание! После прослушивания , вы должны удалить скачанные файлы и приобрести лицензионные копии музыкальных материалов!

Другие новости по теме:

Уважаемый посетитель, Вы зашли на сайт как незарегистрированный пользователь.
Мы рекомендуем Вам зарегистрироваться либо войти на сайт под своим именем.

Комментарии:

Комментировать
Информация
Посетители, находящиеся в группе Гости, не могут оставлять комментарии к данной публикации.

ВХОД НА САЙТ

 


Расширенный поиск
Обратная связь
RSS новости

Рекомендуем

Фотогалерея

Фотогалерея исполнителей,групп с высоким разрешением...!

ФОТО ЗДЕСЬ| HERE >>>



Who`s Online

Сейчас на сайте: 2
Гостей: 1

Пользователи: 

- отсутствуют

Роботы: 


 Последние посетители: 

Статистика

Яндекс.Метрика

Рейтинг@Mail.ru



Rambler's Top100

Стили Музыки

БАББЛГАМ//BUBBLEGUM
БАББЛГАМBUBBLEGUM БАББЛГАМ (от англ. bubblegum — вид надувной жевательной резинки, которая при жевании образует пузыри......Далее...
Американский панк
Хотя впоследствии поп-панк и превратился в рвотные массы чартов, породившая его панк-сцена 90-х была рассадником креатив......Далее...
METAL
METAL На заре 70-х до napней с электрогитарами дошло, что рок может быть тяжелее, грязнее, громче и быстрее, чем раньше.......Далее...
MTV Video Music Awards
MTV Video Music AwardsЭМ-ТИ-ВИ ВИДЕО МЬЮЗИК ЭУОРДС (MTV Video Music Awards), ежегодная премия, вручаемая за достижения в......Далее...
ФАБРИКА ЗВЕЗД
ФАБРИКА ЗВЕЗД — музыкальный телепроект по поиску и «раскрутке» молодых и талантливых поп-исполнителей. «Фабрика Звезд» я......Далее...
Independent rock
Independent rockИНДЕПЕНДЕНТ-РОК (инди-рок) (англ. independent rock — независимый рок), понятие, относящееся к исполнител......Далее...
Psychedelia
PsychedeliaПСИХОДЕЛИКА, ПСИХОДЕЛИЯ (англ. psychedelia), в музыке — совокупность звуковых средств — деформированная инстр......Далее...
ПОП-РОК
ПОП-РОК (англ. pop rock), синтез стилистических черт рок-музыки (рок-н-ролла, бит-музыки, хэви-метала и других)ПОП-РОК ......Далее...
INDIE
От кривого, нестройного бренчания инди — к мрачному и сексуально привлекательному альт-року. Да, 80-е были десятилетием,......Далее...
ХАРД-РОК/Hard Rock
ХАРД-РОК (англ. hard rock, от hard — твердый и рок), первоначально — энергичный и жесткий рок-н-ролл ранних рокеров — ос......Далее...