КАТАЛОГ

Администрация сайта не несёт ответственности за содержимое архивов, а так же за соблюдением авторами постов - авторских прав! Все материаллы публикуются исключительно в ознакомительных целях!

ДОМОЙ   


21-02-2012,

Eric Clapton - Greatest Hits [2CD] (2008)

Автор :
Оцените пост!

Голосов :(0)

Eric Clapton - Greatest Hits [2CD] (2008)


Исполнитель: Eric Clapton
Альбом: Greatest Hits
Лэйбл: Polydor Ltd. (UK).
Каталог #: 16975-1/2
Жанр: BlusRock
Год выхода: ©2008
Качество: FLAC(image+cue)Lossless
Сканы: in archive
Размер: FLAC CD1- 580МБ. CD2- 575МБ.
Кол-во треков: 36


Eric Clapton - Greatest Hits [2CD] (2008)


Tracklist
...........................
CD1
01. After Midnight [0:03:08.67]
02. Let It Rain [0:05:06.55]
03. I Shot The Sheriff [0:04:22.39]
04. Let It Grow [0:04:57.13]
05. Knockin' On Heaven's Door [0:04:24.23]
06. Hello Old Friend [0:03:34.57]
07. Cocaine [0:03:35.46]
08. Lay Down Sally [0:03:49.66]
09. Wonderful Tonight [0:03:41.36]
10. Promises [0:02:59.68]
11. I Can't Stand It [0:04:08.31]
12. I've Got A Rock 'N' Roll Heart [0:03:16.31]
13. She's Waiting [0:04:56.48]
14. Forever Man [0:03:14.46]
15. It's In The Way That You Use It [0:04:13.39]
16. Pretending [0:04:43.21]
17. Bad Love [0:05:08.56]
18. Before you accuse me (take a look at yourself [0:03:57.12]
19. Running On Faith (Unplugged) [0:06:12.54]

Eric Clapton - Greatest Hits [2CD] (2008)


CD2
01. Layla (Unplugged) [0:04:37.74]
02. Tears In Heaven [0:04:37.18]
03. Motherless Child [0:02:59.12]
04. Change The World [0:03:58.20]
05. My Father's Eyes [0:05:26.15]
06. Pilgrim [0:05:52.18]
07. Circus [0:04:13.40]
08. (I) Get Lost [0:04:23.05]
09. Blue Eyes Blue [0:04:44.55]
10. Riding With The King (Eric Clapton & B.B. King) [0:04:27.08]
11. Believe In Life [0:05:07.58]
12. Superman Inside [0:05:09.28]
13. If I Had Possession Over Judgement Day [0:03:31.39]
14. Sweet Home Chicago [0:05:19.24]
15. Say What You Will [0:04:37.25]
16. One Track Mind [0:05:06.32]
17. Ride the River (Eric Clapton & J.J. Cale) [0:04:35.69]

Eric Clapton - Greatest Hits [2CD] (2008)


[spoiler=Log EAC]Exact Audio Copy V1.0 beta 1 from 15. November 2010

EAC extraction logfile from 19. February 2012, 5:14

Eric Clapton / Greatest Hits (CD1)

Used drive : ATAPI iHAP122 W Adapter: 1 ID: 0

Read mode : Secure
Utilize accurate stream : Yes
Defeat audio cache : Yes
Make use of C2 pointers : No

Read offset correction : 6
Overread into Lead-In and Lead-Out : No
Fill up missing offset samples with silence : Yes
Delete leading and trailing silent blocks : No
Null samples used in CRC calculations : Yes
Used interface : Native Win32 interface for Win NT & 2000

Used output format : Internal WAV Routines
Sample format : 44.100 Hz; 16 Bit; Stereo


TOC of the extracted CD

Track | Start | Length | Start sector | End sector
---------------------------------------------------------
1 | 0:00.00 | 3:08.67 | 0 | 14166
2 | 3:08.67 | 5:06.55 | 14167 | 37171
3 | 8:15.47 | 4:22.39 | 37172 | 56860
4 | 12:38.11 | 4:57.13 | 56861 | 79148
5 | 17:35.24 | 4:24.23 | 79149 | 98971
6 | 21:59.47 | 3:34.57 | 98972 | 115078
7 | 25:34.29 | 3:35.46 | 115079 | 131249
8 | 29:10.00 | 3:49.66 | 131250 | 148490
9 | 32:59.66 | 3:41.36 | 148491 | 165101
10 | 36:41.27 | 2:59.68 | 165102 | 178594
11 | 39:41.20 | 4:08.31 | 178595 | 197225
12 | 43:49.51 | 3:16.31 | 197226 | 211956
13 | 47:06.07 | 4:56.48 | 211957 | 234204
14 | 52:02.55 | 3:14.46 | 234205 | 248800
15 | 55:17.26 | 4:13.39 | 248801 | 267814
16 | 59:30.65 | 4:43.21 | 267815 | 289060
17 | 64:14.11 | 5:08.56 | 289061 | 312216
18 | 69:22.67 | 3:57.12 | 312217 | 330003
19 | 73:20.04 | 6:12.54 | 330004 | 357957


Range status and errors

Selected range

Filename C:MusicBoxEric Clapton - Greatest Hits (CD1).wav

Peak level 100.0 %
Extraction speed 0.7 X
Range quality 99.9 %
Copy CRC F0648EA2
Copy OK

No errors occurred

End of status report

\\\\\\\\\\

Exact Audio Copy V1.0 beta 1 from 15. November 2010

EAC extraction logfile from 19. February 2012, 5:47

Eric Clapton / Greatest Hits (CD2)

Used drive : ATAPI iHAP122 W Adapter: 1 ID: 0

Read mode : Secure
Utilize accurate stream : Yes
Defeat audio cache : Yes
Make use of C2 pointers : No

Read offset correction : 6
Overread into Lead-In and Lead-Out : No
Fill up missing offset samples with silence : Yes
Delete leading and trailing silent blocks : No
Null samples used in CRC calculations : Yes
Used interface : Native Win32 interface for Win NT & 2000

Used output format : Internal WAV Routines
Sample format : 44.100 Hz; 16 Bit; Stereo


TOC of the extracted CD

Track | Start | Length | Start sector | End sector
---------------------------------------------------------
1 | 0:00.00 | 4:35.74 | 0 | 20698
2 | 4:35.74 | 4:37.18 | 20699 | 41491
3 | 9:13.17 | 2:59.12 | 41492 | 54928
4 | 12:12.29 | 3:58.20 | 54929 | 72798
5 | 16:10.49 | 5:26.15 | 72799 | 97263
6 | 21:36.64 | 5:52.18 | 97264 | 123681
7 | 27:29.07 | 4:13.40 | 123682 | 142696
8 | 31:42.47 | 4:23.05 | 142697 | 162426
9 | 36:05.52 | 4:44.55 | 162427 | 183781
10 | 40:50.32 | 4:27.08 | 183782 | 203814
11 | 45:17.40 | 5:07.58 | 203815 | 226897
12 | 50:25.23 | 5:09.28 | 226898 | 250100
13 | 55:34.51 | 3:31.39 | 250101 | 265964
14 | 59:06.15 | 5:19.24 | 265965 | 289913
15 | 64:25.39 | 4:37.25 | 289914 | 310713
16 | 69:02.64 | 5:06.32 | 310714 | 333695
17 | 74:09.21 | 4:37.69 | 333696 | 354539


Range status and errors

Selected range

Filename C:MusicBoxEric Clapton - Greatest Hits (CD2).wav

Peak level 100.0 %
Extraction speed 0.5 X
Range quality 100.0 %
Copy CRC B8830078
Copy OK

No errors occurred

End of status report[/spoiler][spoiler=Log Audiochecker]
[AUDIOCHECKER v2.0 beta (build 457) - by Dester - opdester@freemail.hu
~~~~~~~~~~~~~~~~~~~~~~~~~~~~~~~~~~

Начато: воскресенье, 19. 02. 2012. - 5:52.13
Найдено файлов: 2

1 -===- C:MusicBoxEric Clapton - Greatest Hits (CD2).flac
Извлечение успешно выполнено
Заключение: этот трек - CDDA с вероятностью 100%
Временный файл удалён.

2 -===- C:MusicBoxEric Clapton - Greatest Hits (CD1).flac
Извлечение успешно выполнено
Заключение: этот трек - CDDA с вероятностью 100%
Временный файл удалён.


Завершено: воскресенье, 19. 02. 2012. - 6:07.54 (Время операции: 0:15.41)/spoiler]

Eric Clapton - Greatest Hits [2CD] (2008)

Eric Clapton - Greatest Hits [2CD] (2008)
Внимание! У вас нет прав для просмотра скрытого текста.


Исполнитель::
Альбом:



Внимание! После прослушивания , вы должны удалить скачанные файлы и приобрести лицензионные копии музыкальных материалов!

Другие новости по теме:

Уважаемый посетитель, Вы зашли на сайт как незарегистрированный пользователь.
Мы рекомендуем Вам зарегистрироваться либо войти на сайт под своим именем.

Комментарии:

Комментировать
Информация
Посетители, находящиеся в группе Гости, не могут оставлять комментарии к данной публикации.

ВХОД НА САЙТ

 


Расширенный поиск
Обратная связь
RSS новости

Рекомендуем

Фотогалерея

Фотогалерея исполнителей,групп с высоким разрешением...!

ФОТО ЗДЕСЬ| HERE >>>



Who`s Online

Сейчас на сайте: 2
Гостей: 2

Пользователи: 

- отсутствуют

Роботы: 

- отсутствуют

 Последние посетители: 

Статистика

Яндекс.Метрика

Рейтинг@Mail.ru



Rambler's Top100

Стили Музыки

INDIE
От кривого, нестройного бренчания инди — к мрачному и сексуально привлекательному альт-року. Да, 80-е были десятилетием,......Далее...
Gospel
ГОСПЕЛ (англ. gospel — евангелие), представляет собой жанр сольной евангелической песни,ГОСПЕЛ (англ. gospel — еван......Далее...
Skiffle
СКИФФЛ (англ. skiffle) музыка любительских и полупрофессиональных английских групп рубежа 50—60-х годов 20 века.СКИФФЛ (......Далее...
БАРД-РОК
БАРД-РОКБАРД-РОК , одно из направлений российской рок-музыки. Развивался под влиянием серьезной поэзии и особенно бар......Далее...
Ambient
Ambient(ЭМБИЕНТангл. , букв. — окружающий), стиль современной электронной музыки. Основан на использовании сэмплов живой......Далее...
ROCK SOUNDTRACKS
В 80-е кино отнюдь не грешило однородностью. Оно отличалось завидной полистилистикой, но главным в нем было, пожалуй, на......Далее...
Eurodance
EurodanceEurodance ЕВРОДЭНС (Eurodance), собирательное название для основной массы клубной музыки Западной Европы 19......Далее...
ФАНК \FUNK
Фанк FUNKФанк FUNK ФАНК (фанки) (англ. funk — испуганный), в поп-музыке одна из форм ритм-энд-блюза. Термин родился в д......Далее...
ПОСТ-ПАНК
ПОСТ-ПАНКПОСТ-ПАНК (англ. post punk — «после панка»), совокупность музыкальных форм, возникших в рок-музыке после 19......Далее...
МЮЗИКЛ
МЮЗИКЛ МЮЗИКЛ (англ. musical), музыкально-сценическое произведение, в котором используются различные средства эстрад......Далее...