КАТАЛОГ

Администрация сайта не несёт ответственности за содержимое архивов, а так же за соблюдением авторами постов - авторских прав! Все материаллы публикуются исключительно в ознакомительных целях!

ДОМОЙ   


23-11-2010,

ВИА 'Самоцветы' - Двадцать лет спустя (1996)

Автор : Gnus
Оцените пост!

Голосов :(0)

ВИА 'Самоцветы' - Двадцать лет спустя (1996)
Performer: ВИА 'Самоцветы'
Album: Двадцать лет спустя
Label: GALA Records Inc.
Catalog #: GLCD1019601-47
Style: Retro, Pop
Year: 1996
Format: APE (tracks + .cue)
Bitrate: lossless
Covers: in archive
Amount of tracks: 09
Size RAR: ~ 258,65 Mb
Upload: letitbit.net, turbobit.net
Recovery: 3%
Password: without a password

Tracklist:
-----------------
01. Всё, что в жизни есть у меня (В.Добрынин-Л.Дербенёв) [3:52]
02. Не надо печалиться (А.Экимян-Р.Рождественский) [3:29]
03. Чернобровая дивчина (Р.Мануков-Т.Сашко) [3:54]
04. Увезу тебя я в Тундру (М.Фрадкин-М.Пляцковский) [3:03]
05. Миг первой любви (В.Пресняков[Ст.],Ю.Маликов-Б.Салибов) [4:07]
06. Школьный бал (С.Дьячков-П.Леонидов) [4:34]
07. Попурри [7:16]
08. Удивительные кони (В.Пресняков[Ст.],Ю.Маликов-В.Сауткин) [4:05]
09. Мой адрес, Советский Союз (Д.Тухманов-В.Харитонов) [3:02]
--------------------------
Total time [00:37:22]

[spoiler="Amplitude Frequency Spectrum"]
ВИА 'Самоцветы' - Двадцать лет спустя (1996)
ВИА 'Самоцветы' - Двадцать лет спустя (1996)
[/spoiler][/spoiler][spoiler="Log EAC"]Exact Audio Copy V0.99 prebeta 5 from 4. May 2009

Отчёт EAC об извлечении, выполненном 18. января 2010, 18:02

ВИА 'Самоцветы' / Двадцать лет спустя

Дисковод: Optiarc DVD RW AD-7190A Adapter: 6 ID: 0

Режим чтения : Достоверность
Использование точного потока : Да
Отключение кэша аудио : Да
Использование указателей C2 : Нет

Комбинированное смещение чтения/записи : 48
Способность читать области Lead-in и Lead-out : Нет
Заполнение пропущенных сэмплов тишиной : Да
Удаление блоков с тишиной в начале и конце : Нет
При вычислениях CRC использовались нулевые сэмплы : Да
Интерфейс : Встроенный Win32-интерфейс для Win NT/2000
Обработка зазоров : Добавлено к предыдущему треку

Выходной формат : Пользовательский кодировщик
Выбранный битрейт : 1024 kBit/s
Качество : Высокий
Добавление ID3-тэга : Да
Утилита сжатия : C:Program FilesExact Audio CopyFLACFLAC.EXE
Дополнительные параметры : -8 -V -T "ARTIST=%a" -T "TITLE=%t" -T "ALBUM=%g" -T "DATE=%y" -T "TRACKNUMBER=%n" -T "GENRE=%m" -T "COMMENT=%e" %s -o %d


TOC извлечённого CD

Трек | Старт | Длительность | Начальный сектор | Конечный сектор
---------------------------------------------------------------------
1 | 0:00.00 | 3:51.41 | 0 | 17365
2 | 3:51.41 | 3:29.37 | 17366 | 33077
3 | 7:21.03 | 3:53.59 | 33078 | 50611
4 | 11:14.62 | 3:03.06 | 50612 | 64342
5 | 14:17.68 | 4:06.50 | 64343 | 82842
6 | 18:24.43 | 4:33.51 | 82843 | 103368
7 | 22:58.19 | 7:16.34 | 103369 | 136102
8 | 30:14.53 | 4:04.71 | 136103 | 154473
9 | 34:19.49 | 3:01.74 | 154474 | 168122


Трек 1

Имя файла C:ВИА 'Самоцветы' - Двадцать лет спустя1 ВИА 'Самоцветы' - Всё, что в жизни есть у меня (В.Добрынин-Л.Дербенёв).wav

Длина предзазора 0:00:02.00

Пиковый уровень 91.9 %
Качество трека 100.0 %
CRC теста 4D229B89
CRC копии 4D229B89
Копирование... OK

Трек 2

Имя файла C:ВИА 'Самоцветы' - Двадцать лет спустя2 ВИА 'Самоцветы' - Не надо печалиться (А.Экимян-Р.Рождественский).wav

Пиковый уровень 83.0 %
Качество трека 100.0 %
CRC теста 18952CEE
CRC копии 18952CEE
Копирование... OK

Трек 3

Имя файла C:ВИА 'Самоцветы' - Двадцать лет спустя3 ВИА 'Самоцветы' - Чернобровая дивчина (Р.Мануков-Т.Сашко).wav

Пиковый уровень 71.5 %
Качество трека 99.9 %
CRC теста FB35B821
CRC копии FB35B821
Копирование... OK

Трек 4

Имя файла C:ВИА 'Самоцветы' - Двадцать лет спустя4 ВИА 'Самоцветы' - Увезу тебя я в Тундру (М.Фрадкин-М.Пляцковский).wav

Пиковый уровень 77.9 %
Качество трека 100.0 %
CRC теста 20A68E76
CRC копии 20A68E76
Копирование... OK

Трек 5

Имя файла C:ВИА 'Самоцветы' - Двадцать лет спустя5 ВИА 'Самоцветы' - Миг первой любви (В.Пресняков[Ст.],Ю.Маликов-Б.Салибов).wav

Пиковый уровень 95.8 %
Качество трека 100.0 %
CRC теста 85FBC38E
CRC копии 85FBC38E
Копирование... OK

Трек 6

Имя файла C:ВИА 'Самоцветы' - Двадцать лет спустя6 ВИА 'Самоцветы' - Школьный бал (С.Дьячков-П.Леонидов).wav

Пиковый уровень 75.2 %
Качество трека 100.0 %
CRC теста 9A75CDC0
CRC копии 9A75CDC0
Копирование... OK

Трек 7

Имя файла C:ВИА 'Самоцветы' - Двадцать лет спустя7 ВИА 'Самоцветы' - Попурри.wav

Пиковый уровень 82.7 %
Качество трека 100.0 %
CRC теста 8B41F4FB
CRC копии 8B41F4FB
Копирование... OK

Трек 8

Имя файла C:ВИА 'Самоцветы' - Двадцать лет спустя8 ВИА 'Самоцветы' - Удивительные кони (В.Пресняков[Ст.],Ю.Маликов-В.Сауткин).wav

Пиковый уровень 82.0 %
Качество трека 100.0 %
CRC теста 0BBA1D63
CRC копии 0BBA1D63
Копирование... OK

Трек 9

Имя файла C:ВИА 'Самоцветы' - Двадцать лет спустя9 ВИА 'Самоцветы' - Мой адрес, Советский Союз (Д.Тухманов-В.Харитонов).wav

Пиковый уровень 80.5 %
Качество трека 99.9 %
CRC теста 42A14BC7
CRC копии 42A14BC7
Копирование... OK

Ошибок не произошло

Конец отчёта
[/spoiler][spoiler="Log Audiochecker"]AUDIOCHECKER v2.0 beta (build 457) - by Dester - opdester@freemail.hu
~~~~~~~~~~~~~~~~~~~~~~~~~~~~~~~~~~
-=== НЕ РЕДАКТИРУЙТЕ ЭТОТ ФАЙЛ! ===-

Путь: ...ВИА 'Самоцветы' - Двадцать лет спустя (1996)

1 -=- 01 ВИА 'Самоцветы' - Всё, что в жизни есть у меня (В.Добрынин-Л.Дербенёв).flac -=- CDDA (100%)
2 -=- 02 ВИА 'Самоцветы' - Не надо печалиться (А.Экимян-Р.Рождественский).flac -=- CDDA (100%)
3 -=- 03 ВИА 'Самоцветы' - Чернобровая дивчина (Р.Мануков-Т.Сашко).flac -=- CDDA (100%)
4 -=- 04 ВИА 'Самоцветы' - Увезу тебя я в Тундру (М.Фрадкин-М.Пляцковский).flac -=- CDDA (100%)
5 -=- 05 ВИА 'Самоцветы' - Миг первой любви (В.Пресняков[Ст.],Ю.Маликов-Б.Салибов).flac -=- CDDA (100%)
6 -=- 06 ВИА 'Самоцветы' - Школьный бал (С.Дьячков-П.Леонидов).flac -=- CDDA (100%)
7 -=- 07 ВИА 'Самоцветы' - Попурри.flac -=- CDDA (100%)
8 -=- 08 ВИА 'Самоцветы' - Удивительные кони (В.Пресняков[Ст.],Ю.Маликов-В.Сауткин).flac -=- CDDA (100%)
9 -=- 09 ВИА 'Самоцветы' - Мой адрес, Советский Союз (Д.Тухманов-В.Харитонов).flac -=- CDDA (100%)

Сводка 100,00% CDDA

93172180
[/spoiler]
ВИА 'Самоцветы' - Двадцать лет спустя (1996)

Внимание! У вас нет прав для просмотра скрытого текста.


Исполнитель:: ВИА 'Самоцветы'
Год:©1996

Жанр:Retro, Pop


Внимание! После прослушивания , вы должны удалить скачанные файлы и приобрести лицензионные копии музыкальных материалов!

Другие новости по теме:

Уважаемый посетитель, Вы зашли на сайт как незарегистрированный пользователь.
Мы рекомендуем Вам зарегистрироваться либо войти на сайт под своим именем.

Комментарии:

Комментировать
Информация
Посетители, находящиеся в группе Гости, не могут оставлять комментарии к данной публикации.

ВХОД НА САЙТ

 


Расширенный поиск
Обратная связь
RSS новости

Рекомендуем

Фотогалерея

Фотогалерея исполнителей,групп с высоким разрешением...!

ФОТО ЗДЕСЬ| HERE >>>



Who`s Online

Сейчас на сайте: 4
Гостей: 3

Пользователи: 

- отсутствуют

Роботы: 


 Последние посетители: 

Статистика

Яндекс.Метрика

Рейтинг@Mail.ru



Rambler's Top100

Стили Музыки

MTV Video Music Awards
MTV Video Music AwardsЭМ-ТИ-ВИ ВИДЕО МЬЮЗИК ЭУОРДС (MTV Video Music Awards), ежегодная премия, вручаемая за достижения в......Далее...
ХАРД-РОК/Hard Rock
ХАРД-РОК (англ. hard rock, от hard — твердый и рок), первоначально — энергичный и жесткий рок-н-ролл ранних рокеров — ос......Далее...
Grammy
GrammyГРЭММИ , музыкальная награда Национальной академии звукозаписи США; была учреждена в 1957 году Grammy ГРЭММИ ,......Далее...
Psychedelia
PsychedeliaПСИХОДЕЛИКА, ПСИХОДЕЛИЯ (англ. psychedelia), в музыке — совокупность звуковых средств — деформированная инстр......Далее...
FUNK ROCK
FUNK ROCKFUNK ROCK Удивительный и суматошный мир фанк-рока с самого начала являл собой невероятное смешение разнообраз......Далее...
СОУЛ/soul
СОУЛ (от англ. soul — душа), разновидность ритм-энд-блюза с элементами спиричуэл.СОУЛ (от англ. soul — душа), разнови......Далее...
ЗОЛОТОЙ ГРАММОФОН
ЗОЛОТОЙ ГРАММОФОН, ежегодная российская музыкальная премия в области популярной музыки. Учредитель премии — радиостанция......Далее...
Trash/ТРЭШ
ТРЭШ (англ. trash), стилевое направление в хэви-метал, характеризующееся,ТРЭШ (англ. trash), стилевое направление в хэ......Далее...
Jazz Rock
JAZZ ROCKДля непосвященных это может стать минным полем, зато. если ступать осторожно... впрочем, вам и тогда все равно......Далее...
METAL
METAL На заре 70-х до napней с электрогитарами дошло, что рок может быть тяжелее, грязнее, громче и быстрее, чем раньше.......Далее...