КАТАЛОГ

Администрация сайта не несёт ответственности за содержимое архивов, а так же за соблюдением авторами постов - авторских прав! Все материаллы публикуются исключительно в ознакомительных целях!

ДОМОЙ   


18-11-2010,

Leona Lewis - Spirit (2007)

Автор : W.A.S.P
Оцените пост!

Голосов :(0)

Leona Lewis - Spirit (2007)
Performer: Leona Lewis
Album: Spirit
Label: Sony BMG Music Entertainment (UK) Ltd.
Catalog #: 88697 18526 2
Style: Soul
Year: 2007
Format: FLAC (tracks + .cue)
Bitrate: lossless
Covers: in archive
Amount of tracks: 14
Size ZIP: ~ 382 mb
Upload: rapidshare.com, letitbit.net
Password: without a password

Tracklist:
-----------------
01. Bleeding Love (4:23)
02. Whatever it Takes (3:28)
03. Homeless (3:50)
04. Better in Time (3:55)
05. Yesterday (3:55)
06. Take a Bow (3:54)
07. I Will Be (4:00)
08. Angel (4:14)
09. Here I Am (4:53)
10. I'm You (3:48)
11. The Best You Never Had (3:43)
12. The First Time Ever I Saw Your Face (4:26)
13. Footprints in the Sand (4:08)
14. A Moment Like This (UK Bonus Track) (4:17)
--------------------------
Total time [00:56:54]

[/spoiler][spoiler="Log EAC"]
Exact Audio Copy V0.99 prebeta 3 from 28. July 2007

EAC extraction logfile from 29. December 2007, 14:34

Leona Lewis / Spirit

Used drive : HL-DT-STDVDRAM GSA-T20N Adapter: 1 ID: 0

Read mode : Secure
Utilize accurate stream : Yes
Defeat audio cache : Yes
Make use of C2 pointers : No

Read offset correction : 667
Overread into Lead-In and Lead-Out : No
Fill up missing offset samples with silence : Yes
Delete leading and trailing silent blocks : No
Null samples used in CRC calculations : Yes
Used interface : Native Win32 interface for Win NT & 2000
Gap handling : Appended to previous track

Used output format : User Defined Encoder
Selected bitrate : 192 kBit/s
Quality : High
Add ID3 tag : No
Command line compressor : C:Program FilesExact Audio Copyflac.exe
Additional command line options : -V -5 -T "artist=%a" -T "title=%t" -T "album=%g" -T "date=%y" -T "tracknumber=%n" -T "genre=%m" %s


TOC of the extracted CD

Track | Start | Length | Start sector | End sector
---------------------------------------------------------
1 | 0:00.00 | 4:23.10 | 0 | 19734
2 | 4:23.10 | 3:27.40 | 19735 | 35299
3 | 7:50.50 | 3:50.17 | 35300 | 52566
4 | 11:40.67 | 3:54.45 | 52567 | 70161
5 | 15:35.37 | 3:54.53 | 70162 | 87764
6 | 19:30.15 | 3:54.22 | 87765 | 105336
7 | 23:24.37 | 3:59.45 | 105337 | 123306
8 | 27:24.07 | 4:14.10 | 123307 | 142366
9 | 31:38.17 | 4:52.48 | 142367 | 164314
10 | 36:30.65 | 3:48.27 | 164315 | 181441
11 | 40:19.17 | 3:43.32 | 181442 | 198198
12 | 44:02.49 | 4:26.18 | 198199 | 218166
13 | 48:28.67 | 4:08.35 | 218167 | 236801
14 | 52:37.27 | 4:17.06 | 236802 | 256082


Track 1

Filename C:UsersJoshDesktopmusicLeona Lewis - Spirit1 - Leona Lewis - Bleeding Love.wav

Pre-gap length 0:00:02.00

Peak level 97.5 %
Track quality 100.0 %
Test CRC 5CD4BC7D
Copy CRC 5CD4BC7D
Accurately ripped (confidence 2) [8BA54073]
Copy OK

Track 2

Filename C:UsersJoshDesktopmusicLeona Lewis - Spirit2 - Leona Lewis - Whatever it Takes.wav

Pre-gap length 0:00:00.50

Peak level 98.8 %
Track quality 99.9 %
Test CRC 4C1E7152
Copy CRC 4C1E7152
Accurately ripped (confidence 2) [6CF7D392]
Copy OK

Track 3

Filename C:UsersJoshDesktopmusicLeona Lewis - Spirit3 - Leona Lewis - Homeless.wav

Pre-gap length 0:00:00.43

Peak level 100.0 %
Track quality 100.0 %
Test CRC DAC8D3BD
Copy CRC DAC8D3BD
Accurately ripped (confidence 2) [0DF268D4]
Copy OK

Track 4

Filename C:UsersJoshDesktopmusicLeona Lewis - Spirit4 - Leona Lewis - Better in Time.wav

Pre-gap length 0:00:01.04

Peak level 98.9 %
Track quality 100.0 %
Test CRC F8F828D4
Copy CRC F8F828D4
Accurately ripped (confidence 2) [80F87C69]
Copy OK

Track 5

Filename C:UsersJoshDesktopmusicLeona Lewis - Spirit5 - Leona Lewis - Yesterday.wav

Pre-gap length 0:00:00.32

Peak level 97.1 %
Track quality 100.0 %
Test CRC 3B405D4E
Copy CRC 3B405D4E
Accurately ripped (confidence 2) [7E89AF9E]
Copy OK

Track 6

Filename C:UsersJoshDesktopmusicLeona Lewis - Spirit6 - Leona Lewis - Take a Bow.wav

Pre-gap length 0:00:00.60

Peak level 100.0 %
Track quality 100.0 %
Test CRC CB686129
Copy CRC CB686129
Accurately ripped (confidence 2) [54A8D72B]
Copy OK

Track 7

Filename C:UsersJoshDesktopmusicLeona Lewis - Spirit7 - Leona Lewis - I Will Be.wav

Pre-gap length 0:00:00.12

Peak level 98.8 %
Track quality 100.0 %
Test CRC 9CE9C54D
Copy CRC 9CE9C54D
Accurately ripped (confidence 2) [471E0E7C]
Copy OK

Track 8

Filename C:UsersJoshDesktopmusicLeona Lewis - Spirit8 - Leona Lewis - Angel.wav

Pre-gap length 0:00:00.69

Peak level 97.7 %
Track quality 100.0 %
Test CRC 328A67C4
Copy CRC 328A67C4
Accurately ripped (confidence 2) [5945AE98]
Copy OK

Track 9

Filename C:UsersJoshDesktopmusicLeona Lewis - Spirit9 - Leona Lewis - Here I Am.wav

Pre-gap length 0:00:00.05

Peak level 99.8 %
Track quality 100.0 %
Test CRC 6E7F5E32
Copy CRC 6E7F5E32
Accurately ripped (confidence 2) [5354EE6B]
Copy OK

Track 10

Filename C:UsersJoshDesktopmusicLeona Lewis - Spirit10 - Leona Lewis - I'm You.wav

Pre-gap length 0:00:01.56

Peak level 98.8 %
Track quality 100.0 %
Test CRC 374D32E5
Copy CRC 374D32E5
Accurately ripped (confidence 2) [00B62B06]
Copy OK

Track 11

Filename C:UsersJoshDesktopmusicLeona Lewis - Spirit11 - Leona Lewis - The Best You Never Had.wav

Pre-gap length 0:00:01.05

Peak level 97.7 %
Track quality 100.0 %
Test CRC FEFF6360
Copy CRC FEFF6360
Accurately ripped (confidence 2) [461B724E]
Copy OK

Track 12

Filename C:UsersJoshDesktopmusicLeona Lewis - Spirit12 - Leona Lewis - The First Time Ever I Saw Your Face.wav

Pre-gap length 0:00:01.54

Peak level 87.3 %
Track quality 100.0 %
Test CRC 947A54FE
Copy CRC 947A54FE
Accurately ripped (confidence 2) [35F96B42]
Copy OK

Track 13

Filename C:UsersJoshDesktopmusicLeona Lewis - Spirit13 - Leona Lewis - Footprints in the Sand.wav

Pre-gap length 0:00:00.66

Peak level 98.8 %
Track quality 100.0 %
Test CRC 18173CE4
Copy CRC 18173CE4
Accurately ripped (confidence 2) [79AD3A2E]
Copy OK

Track 14

Filename C:UsersJoshDesktopmusicLeona Lewis - Spirit14 - Leona Lewis - A Moment Like This (UK Bonus Track).wav

Pre-gap length 0:00:00.59

Peak level 98.8 %
Track quality 100.0 %
Test CRC 88EAA3FB
Copy CRC 88EAA3FB
Accurately ripped (confidence 2) [A4DEA01A]
Copy OK


All tracks accurately ripped

No errors occurred

End of status report
[/spoiler][spoiler="Log Audiochecker"]
AUDIOCHECKER v2.0 beta (build 457) - by Dester - opdester@freemail.hu
~~~~~~~~~~~~~~~~~~~~~~~~~~~~~~~~~~
-=== DO NOT EDIT THIS FILE! ===-

Path: ...Leona Lewis - Spirit (2007)

01 -=- 01 - Leona Lewis - Bleeding Love.flac -=- CDDA (100%)
02 -=- 02 - Leona Lewis - Whatever it Takes.flac -=- CDDA (100%)
03 -=- 03 - Leona Lewis - Homeless.flac -=- CDDA (100%)
04 -=- 04 - Leona Lewis - Better in Time.flac -=- CDDA (100%)
05 -=- 05 - Leona Lewis - Yesterday.flac -=- CDDA (100%)
06 -=- 06 - Leona Lewis - Take a Bow.flac -=- CDDA (100%)
07 -=- 07 - Leona Lewis - I Will Be.flac -=- CDDA (100%)
08 -=- 08 - Leona Lewis - Angel.flac -=- CDDA (100%)
09 -=- 09 - Leona Lewis - Here I Am.flac -=- CDDA (100%)
10 -=- 10 - Leona Lewis - I'm You.flac -=- CDDA (100%)
11 -=- 11 - Leona Lewis - The Best You Never Had.flac -=- CDDA (100%)
12 -=- 12 - Leona Lewis - The First Time Ever I Saw Your Face.flac -=- CDDA (100%)
13 -=- 13 - Leona Lewis - Footprints in the Sand.flac -=- CDDA (100%)
14 -=- 14 - Leona Lewis - A Moment Like This (UK Bonus Track).flac -=- CDDA (100%)

Summary 100,00% CDDA

169525972
[/spoiler]
Leona Lewis - Spirit (2007)

Внимание! У вас нет прав для просмотра скрытого текста.


Исполнитель::
Альбом:



Внимание! После прослушивания , вы должны удалить скачанные файлы и приобрести лицензионные копии музыкальных материалов!

Другие новости по теме:

Уважаемый посетитель, Вы зашли на сайт как незарегистрированный пользователь.
Мы рекомендуем Вам зарегистрироваться либо войти на сайт под своим именем.

Комментарии:

Комментировать
Информация
Посетители, находящиеся в группе Гости, не могут оставлять комментарии к данной публикации.

ВХОД НА САЙТ

 


Расширенный поиск
Обратная связь
RSS новости

Рекомендуем

Фотогалерея

Фотогалерея исполнителей,групп с высоким разрешением...!

ФОТО ЗДЕСЬ| HERE >>>



Who`s Online

Сейчас на сайте: 7
Гостей: 6

Пользователи: 

- отсутствуют

Роботы: 


 Последние посетители: 

Статистика

Яндекс.Метрика

Рейтинг@Mail.ru



Rambler's Top100

Стили Музыки

FUNK ROCK
FUNK ROCKFUNK ROCK Удивительный и суматошный мир фанк-рока с самого начала являл собой невероятное смешение разнообраз......Далее...
Gospel
ГОСПЕЛ (англ. gospel — евангелие), представляет собой жанр сольной евангелической песни,ГОСПЕЛ (англ. gospel — еван......Далее...
INDIE
От кривого, нестройного бренчания инди — к мрачному и сексуально привлекательному альт-року. Да, 80-е были десятилетием,......Далее...
POWER POP
Лукавый кузен поп-рока, пауэр-поп — один из наиболее "пестрых'' и восприимчевых к сторонним влияниям стилей......Далее...
METAL
METAL На заре 70-х до napней с электрогитарами дошло, что рок может быть тяжелее, грязнее, громче и быстрее, чем раньше.......Далее...
PROG ROCK
Классические шедевры с замысловатыми мелодическими линиями или до предела усложненные "от избытка ума" изначал......Далее...
New Wave/ НОВАЯ ВОЛНА
После панка пришла новая волна групп, настроенных делать все по-своему — и зачастую звучавших очень по-разному...НОВАЯ В......Далее...
Doo Wop
Doo Wop направление в поп-музыке, представляющее собой вокальный ритм-энд-блюз, характеризующийся подпевками a capella и......Далее...
ROCK SOUNDTRACKS
В 80-е кино отнюдь не грешило однородностью. Оно отличалось завидной полистилистикой, но главным в нем было, пожалуй, на......Далее...
THRASH METAL
Обязательные, рекомендуемые и даром не нужные образцы жанра, порожденного "бомжеватого вида Металликой" в нача......Далее...