КАТАЛОГ

Администрация сайта не несёт ответственности за содержимое архивов, а так же за соблюдением авторами постов - авторских прав! Все материаллы публикуются исключительно в ознакомительных целях!

ДОМОЙ   


9-11-2010,

Taylor Swift - Fearless (Platinum Edition) (2009)

Автор : W.A.S.P
Оцените пост!

Голосов :(0)

Taylor Swift - Fearless (Platinum Edition) (2009)
Performer: Taylor Swift
Album: Fearless (Platinum Edition)
Label: Big Machine Records
Catalog #: BMRBTS0250
Style: Country
Year: 2009
Format: FLAC (tracks + .cue)
Bitrate: lossless
Covers: in archive
Amount of tracks: 19
Size ZIP: ~ 555 mb
Upload: rapidshare.com, letitbit.net
Tracklist:
-----------------
01. Jump Then Fall [3:58]
02. Untouchable [5:12]
03. Forever & Always (Piano Version) [4:28]
04. Come In With The Rain [3:59]
05. Superstar [4:23]
06. The Other Side Of The Door [3:58]
07. Fearless [4:03]
08. Fifteen [4:55]
09. Love Story [3:56]
10. Hey Stephen [4:16]
11. White Horse [3:55]
12. You Belong With Me [3:52]
13. Breathe (Feat. Colbie Caillat) [4:25]
14. Tell Me Why [3:22]
15. You're Not Sorry [4:23]
16. The Way I Loved You [4:05]
17. Forever & Always [3:46]
18. The Best Day [4:06]
19. Change [4:41]
--------------------------
Total time [01:19:45]

[/spoiler][spoiler="Log EAC"]
Exact Audio Copy V0.99 prebeta 5 from 4. May 2009

EAC extraction logfile from 26. October 2009, 13:49

Taylor Swift / Fearless (Platinum Edition)

Used drive : Optiarc BD ROM BC-5500S4 Adapter: 0 ID: 1

Read mode : Secure
Utilize accurate stream : Yes
Defeat audio cache : Yes
Make use of C2 pointers : No

Read offset correction : 48
Overread into Lead-In and Lead-Out : No
Fill up missing offset samples with silence : Yes
Delete leading and trailing silent blocks : No
Null samples used in CRC calculations : Yes
Used interface : Native Win32 interface for Win NT & 2000
Gap handling : Appended to previous track

Used output format : User Defined Encoder
Selected bitrate : 192 kBit/s
Quality : High
Add ID3 tag : No
Command line compressor : C:Program Files (x86)Exact Audio CopyFlacflac.exe
Additional command line options : -V -8 -T "artist=%a" -T "title=%t" -T "album=%g" -T "date=%y" -T "tracknumber=%n" -T "genre=%m" %s


TOC of the extracted CD

Track | Start | Length | Start sector | End sector
---------------------------------------------------------
1 | 0:00.00 | 3:58.07 | 0 | 17856
2 | 3:58.07 | 5:12.00 | 17857 | 41256
3 | 9:10.07 | 4:28.35 | 41257 | 61391
4 | 13:38.42 | 3:58.62 | 61392 | 79303
5 | 17:37.29 | 4:22.62 | 79304 | 99015
6 | 22:00.16 | 3:58.10 | 99016 | 116875
7 | 25:58.26 | 4:02.73 | 116876 | 135098
8 | 30:01.24 | 4:55.24 | 135099 | 157247
9 | 34:56.48 | 3:56.19 | 157248 | 174966
10 | 38:52.67 | 4:16.03 | 174967 | 194169
11 | 43:08.70 | 3:55.30 | 194170 | 211824
12 | 47:04.25 | 3:52.08 | 211825 | 229232
13 | 50:56.33 | 4:24.71 | 229233 | 249103
14 | 55:21.29 | 3:21.39 | 249104 | 264217
15 | 58:42.68 | 4:23.15 | 264218 | 283957
16 | 63:06.08 | 4:05.31 | 283958 | 302363
17 | 67:11.39 | 3:46.22 | 302364 | 319335
18 | 70:57.61 | 4:06.23 | 319336 | 337808
19 | 75:04.09 | 4:41.04 | 337809 | 358887


Track 1

Filename C:UsersRcDesktopEAC MusicTaylor Swift - Fearless (Platinum Edition) (2009) [FLAC]1 - Jump Then Fall.wav

Pre-gap length 0:00:02.00

Peak level 99.9 %
Track quality 99.9 %
Test CRC 3E975396
Copy CRC 3E975396
Track not present in AccurateRip database
Copy OK

Track 2

Filename C:UsersRcDesktopEAC MusicTaylor Swift - Fearless (Platinum Edition) (2009) [FLAC]2 - Untouchable.wav

Pre-gap length 0:00:01.02

Peak level 93.8 %
Track quality 100.0 %
Test CRC 98414542
Copy CRC 98414542
Track not present in AccurateRip database
Copy OK

Track 3

Filename C:UsersRcDesktopEAC MusicTaylor Swift - Fearless (Platinum Edition) (2009) [FLAC]3 - Forever & Always (Piano Version).wav

Pre-gap length 0:00:00.96

Peak level 99.9 %
Track quality 100.0 %
Test CRC 3B416E69
Copy CRC 3B416E69
Track not present in AccurateRip database
Copy OK

Track 4

Filename C:UsersRcDesktopEAC MusicTaylor Swift - Fearless (Platinum Edition) (2009) [FLAC]4 - Come In With The Rain.wav

Pre-gap length 0:00:00.96

Peak level 99.7 %
Track quality 100.0 %
Test CRC 43AA036E
Copy CRC 43AA036E
Track not present in AccurateRip database
Copy OK

Track 5

Filename C:UsersRcDesktopEAC MusicTaylor Swift - Fearless (Platinum Edition) (2009) [FLAC]5 - Superstar.wav

Pre-gap length 0:00:00.73

Peak level 95.7 %
Track quality 100.0 %
Test CRC F0081863
Copy CRC F0081863
Track not present in AccurateRip database
Copy OK

Track 6

Filename C:UsersRcDesktopEAC MusicTaylor Swift - Fearless (Platinum Edition) (2009) [FLAC]6 - The Other Side Of The Door.wav

Pre-gap length 0:00:01.37

Peak level 99.9 %
Track quality 100.0 %
Test CRC FD2EF7AC
Copy CRC FD2EF7AC
Track not present in AccurateRip database
Copy OK

Track 7

Filename C:UsersRcDesktopEAC MusicTaylor Swift - Fearless (Platinum Edition) (2009) [FLAC]7 - Fearless.wav

Pre-gap length 0:00:00.53

Peak level 99.7 %
Track quality 100.0 %
Test CRC B17FA4D3
Copy CRC B17FA4D3
Track not present in AccurateRip database
Copy OK

Track 8

Filename C:UsersRcDesktopEAC MusicTaylor Swift - Fearless (Platinum Edition) (2009) [FLAC]8 - Fifteen.wav

Pre-gap length 0:00:00.97

Peak level 96.8 %
Track quality 100.0 %
Test CRC E6F4512A
Copy CRC E6F4512A
Track not present in AccurateRip database
Copy OK

Track 9

Filename C:UsersRcDesktopEAC MusicTaylor Swift - Fearless (Platinum Edition) (2009) [FLAC]9 - Love Story.wav

Pre-gap length 0:00:00.97

Peak level 99.9 %
Track quality 100.0 %
Test CRC B69F332F
Copy CRC B69F332F
Track not present in AccurateRip database
Copy OK

Track 10

Filename C:UsersRcDesktopEAC MusicTaylor Swift - Fearless (Platinum Edition) (2009) [FLAC]10 - Hey Stephen.wav

Pre-gap length 0:00:00.97

Peak level 99.2 %
Track quality 99.9 %
Test CRC 60A4A143
Copy CRC 60A4A143
Track not present in AccurateRip database
Copy OK

Track 11

Filename C:UsersRcDesktopEAC MusicTaylor Swift - Fearless (Platinum Edition) (2009) [FLAC]11 - White Horse.wav

Pre-gap length 0:00:01.72

Peak level 89.9 %
Track quality 100.0 %
Test CRC 3AF7E5BC
Copy CRC 3AF7E5BC
Track not present in AccurateRip database
Copy OK

Track 12

Filename C:UsersRcDesktopEAC MusicTaylor Swift - Fearless (Platinum Edition) (2009) [FLAC]12 - You Belong With Me.wav

Pre-gap length 0:00:00.96

Peak level 99.1 %
Track quality 99.9 %
Test CRC 3C8219B5
Copy CRC 3C8219B5
Track not present in AccurateRip database
Copy OK

Track 13

Filename C:UsersRcDesktopEAC MusicTaylor Swift - Fearless (Platinum Edition) (2009) [FLAC]13 - Breathe (Feat. Colbie Caillat).wav

Pre-gap length 0:00:00.96

Peak level 97.8 %
Track quality 100.0 %
Test CRC 7FAB3E66
Copy CRC 7FAB3E66
Track not present in AccurateRip database
Copy OK

Track 14

Filename C:UsersRcDesktopEAC MusicTaylor Swift - Fearless (Platinum Edition) (2009) [FLAC]14 - Tell Me Why.wav

Pre-gap length 0:00:00.96

Peak level 99.7 %
Track quality 100.0 %
Test CRC 63290270
Copy CRC 63290270
Track not present in AccurateRip database
Copy OK

Track 15

Filename C:UsersRcDesktopEAC MusicTaylor Swift - Fearless (Platinum Edition) (2009) [FLAC]15 - You're Not Sorry.wav

Pre-gap length 0:00:00.96

Peak level 99.7 %
Track quality 100.0 %
Test CRC 7BEEE913
Copy CRC 7BEEE913
Track not present in AccurateRip database
Copy OK

Track 16

Filename C:UsersRcDesktopEAC MusicTaylor Swift - Fearless (Platinum Edition) (2009) [FLAC]16 - The Way I Loved You.wav

Pre-gap length 0:00:01.40

Peak level 96.2 %
Track quality 100.0 %
Test CRC 28CFCA48
Copy CRC 28CFCA48
Track not present in AccurateRip database
Copy OK

Track 17

Filename C:UsersRcDesktopEAC MusicTaylor Swift - Fearless (Platinum Edition) (2009) [FLAC]17 - Forever & Always.wav

Pre-gap length 0:00:01.17

Peak level 99.7 %
Track quality 100.0 %
Test CRC BC7CB874
Copy CRC BC7CB874
Track not present in AccurateRip database
Copy OK

Track 18

Filename C:UsersRcDesktopEAC MusicTaylor Swift - Fearless (Platinum Edition) (2009) [FLAC]18 - The Best Day.wav

Pre-gap length 0:00:00.96

Peak level 90.5 %
Track quality 100.0 %
Test CRC 5CB2E8C9
Copy CRC 5CB2E8C9
Track not present in AccurateRip database
Copy OK

Track 19

Filename C:UsersRcDesktopEAC MusicTaylor Swift - Fearless (Platinum Edition) (2009) [FLAC]19 - Change.wav

Pre-gap length 0:00:00.96

Peak level 99.7 %
Track quality 100.0 %
Test CRC 601D782E
Copy CRC 601D782E
Track not present in AccurateRip database
Copy OK


None of the tracks are present in the AccurateRip database

No errors occurred

End of status report
[/spoiler][spoiler="Log Audiochecker"]
AUDIOCHECKER v2.0 beta (build 457) - by Dester - opdester@freemail.hu
~~~~~~~~~~~~~~~~~~~~~~~~~~~~~~~~~~
-=== DO NOT EDIT THIS FILE! ===-

Path: ...Taylor Swift - Fearless (Platinum Edition) (2009)

01 -=- 01 - Jump Then Fall.flac -=- CDDA (100%)
02 -=- 02 - Untouchable.flac -=- CDDA (100%)
03 -=- 03 - Forever & Always (Piano Version).flac -=- CDDA (99%)
04 -=- 04 - Come In With The Rain.flac -=- CDDA (100%)
05 -=- 05 - Superstar.flac -=- CDDA (99%)
06 -=- 06 - The Other Side Of The Door.flac -=- CDDA (100%)
07 -=- 07 - Fearless.flac -=- CDDA (100%)
08 -=- 08 - Fifteen.flac -=- CDDA (100%)
09 -=- 09 - Love Story.flac -=- CDDA (100%)
10 -=- 10 - Hey Stephen.flac -=- CDDA (100%)
11 -=- 11 - White Horse.flac -=- CDDA (100%)
12 -=- 12 - You Belong With Me.flac -=- CDDA (99%)
13 -=- 13 - Breathe (Feat. Colbie Caillat).flac -=- CDDA (100%)
14 -=- 14 - Tell Me Why.flac -=- CDDA (100%)
15 -=- 15 - You're Not Sorry.flac -=- CDDA (100%)
16 -=- 16 - The Way I Loved You.flac -=- CDDA (100%)
17 -=- 17 - Forever & Always.flac -=- CDDA (100%)
18 -=- 18 - The Best Day.flac -=- CDDA (99%)
19 -=- 19 - Change.flac -=- CDDA (100%)

Summary 99,79% CDDA

266879604
[/spoiler]
Taylor Swift - Fearless (Platinum Edition) (2009)

Внимание! У вас нет прав для просмотра скрытого текста.


Исполнитель:: Taylor Swift
Год:©2009

Жанр:Country


Внимание! После прослушивания , вы должны удалить скачанные файлы и приобрести лицензионные копии музыкальных материалов!

Другие новости по теме:

Уважаемый посетитель, Вы зашли на сайт как незарегистрированный пользователь.
Мы рекомендуем Вам зарегистрироваться либо войти на сайт под своим именем.

Комментарии:

Комментировать
Информация
Посетители, находящиеся в группе Гости, не могут оставлять комментарии к данной публикации.

ВХОД НА САЙТ

 


Расширенный поиск
Обратная связь
RSS новости

Рекомендуем

Фотогалерея

Фотогалерея исполнителей,групп с высоким разрешением...!

ФОТО ЗДЕСЬ| HERE >>>



Who`s Online

Сейчас на сайте: 8
Гостей: 6

Пользователи: 



Роботы: 


 Последние посетители: 

Статистика

Яндекс.Метрика

Рейтинг@Mail.ru



Rambler's Top100

Стили Музыки

ФОЛК РОК
В 60-х рокеры неплохо помародерствовали в фолке, но вот 60-е закончились, и фолкеры наверстали свое. Половину 60-х рок-......Далее...
New Wave/ НОВАЯ ВОЛНА
После панка пришла новая волна групп, настроенных делать все по-своему — и зачастую звучавших очень по-разному...НОВАЯ В......Далее...
Американский панк
Хотя впоследствии поп-панк и превратился в рвотные массы чартов, породившая его панк-сцена 90-х была рассадником креатив......Далее...
Jazz Rock
JAZZ ROCKДля непосвященных это может стать минным полем, зато. если ступать осторожно... впрочем, вам и тогда все равно......Далее...
ИНДАСТРИЭЛ|Industrial
ИНДАСТРИЭЛ|Industrial(англ. industrial, букв. — индустриальный), музыкальный стиль, использующий синтезаторы и самодельн......Далее...
ФАБРИКА ЗВЕЗД
ФАБРИКА ЗВЕЗД — музыкальный телепроект по поиску и «раскрутке» молодых и талантливых поп-исполнителей. «Фабрика Звезд» я......Далее...
Jungle -Drum & Bass
Jungle(ДЖАНГЛ), стиль современной танцевальной музыки. Является сплавом европейских и африканских культурных традиций. В......Далее...
SHRED ROCK
Высокоскоростные инструменталисты, стачивающие лады гитар и палящие усилители. Это что, музыка, которую делают гитаристы......Далее...
POWER POP
Лукавый кузен поп-рока, пауэр-поп — один из наиболее "пестрых'' и восприимчевых к сторонним влияниям стилей......Далее...
БЛЮЗ Blues
БЛЮЗ(англ. blues от blue devils — меланхолия, уныние), понятие, относящееся к сфере афро-американского музыкального фоль......Далее...