КАТАЛОГ

Администрация сайта не несёт ответственности за содержимое архивов, а так же за соблюдением авторами постов - авторских прав! Все материаллы публикуются исключительно в ознакомительных целях!

ДОМОЙ   


3-11-2010,

Cosmosis - Fumbling For The Funky Frequency (2009)

Автор : W.A.S.P
Оцените пост!

Голосов :(0)

Cosmosis - Fumbling For The Funky Frequency (2009)
Performer: Cosmosis
Album: Fumbling For The Funky Frequency
Label: Holophonic Records
Catalog #: HOLO 606
Style: Goa Trance, Psy-Trance
Year: 2009
Format: FLAC (tracks + .cue)
Amount of tracks: 09
Size RAR: ~ 538.65 Mb

Tracklist:
-----------------
01. Beguiling Illusions [7:59]
02. Self Discovery [8:07]
03. Space Traveller [7:51]
04. Siren Song [8:25]
05. Take Flight (Cosmosis Mix) [7:43]
06. Samba Del Gringo [9:03]
07. Empty Space (Cosmosis Mix) [8:13]
08. Beyond The Five Senses [8:13]
09. The Eternal Now [9:09]
--------------------------
Total time [01:14:44]

[spoiler="Info"]За проектом Cosmosis стоит некто Bill Halsey из Англии, основавший коллектив вместе с другим трансовым музыкантом - Jez Van Kampen, который к сожалению покинул в 1997 году проект, чтобы поплотнее заняться своим сольным ВИА "The Laughing Buddah". После этого Билл, также любящий называть себя "Бильбо Бэггинз", работает над Cosmosis в одиночестве и выпускает альбомы один за другим - и не собирается почивать на лаврах. А ведь мог бы - уже в конце девяностых годов музыка Cosmosis стала классикой псайтранса.

Первый альбом Cosmosis "Cosmology" вышел в начале 1996 года и быстро стал гоатрансовой классикой. Следующий альбом, "Synergy", Билл выпустил в 1997 году уже в одинчоку, повторив успех дюбетного альбома уже с более псайтрансовым звучанием. Затем вышел в 2000 году альбом "Intergalactic", о котором на официальном сайте отзываются как о "best selling Cosmosis album". В 2002 году за ним последовал альбом "Contact" (после него в 2003 году Билл и DJ Kuma записали пластинку совместного проекта Mumbo Jumbo - 'Speaking In Tongues').

За это время проект Cosmosis хорошо зарекомендовал себя в мире псайтранса. Музыка Билла Хэлси - мелодичная, простая и глубокая - во многом сформировывала звучание на сцене в течение многих лет. В 2005 году вышло целых два альбома - Trancedance и Akashic, а в 2007 году, совсем недавно, вышел альбом Psychedelica Melodica, на 100% отвечающий своему названию. Психоделика. Мелодия. Чего стоят одни испанские мотивы в треке 'Spanish Gypsy' или симфоническое буйство звуков в 'Dance of The Cosmic Serpent'!
[/spoiler][spoiler="Amplitude Frequency Spectrum"]
Cosmosis - Fumbling For The Funky Frequency (2009)
Cosmosis - Fumbling For The Funky Frequency (2009)
[/spoiler][/spoiler][spoiler="Log EAC"]Exact Audio Copy V0.99 prebeta 4 from 23. January 2008

EAC extraction logfile from 27. August 2009, 22:26

Cosmosis / Fumbling For The Funky Frequency

Used drive : TEAC DW-552G Adapter: 0 ID: 1

Read mode : Secure
Utilize accurate stream : Yes
Defeat audio cache : Yes
Make use of C2 pointers : No

Read offset correction : 6
Overread into Lead-In and Lead-Out : No
Fill up missing offset samples with silence : Yes
Delete leading and trailing silent blocks : No
Null samples used in CRC calculations : Yes
Used interface : Native Win32 interface for Win NT & 2000
Gap handling : Appended to previous track

Used output format : Internal WAV Routines
Sample format : 44.100 Hz; 16 Bit; Stereo


TOC of the extracted CD

Track | Start | Length | Start sector | End sector
---------------------------------------------------------
1 | 0:00.00 | 7:59.06 | 0 | 35930
2 | 7:59.06 | 8:07.12 | 35931 | 72467
3 | 16:06.18 | 7:51.22 | 72468 | 107814
4 | 23:57.40 | 8:25.28 | 107815 | 145717
5 | 32:22.68 | 7:43.31 | 145718 | 180473
6 | 40:06.24 | 9:03.31 | 180474 | 221229
7 | 49:09.55 | 8:12.55 | 221230 | 258184
8 | 57:22.35 | 8:13.01 | 258185 | 295160
9 | 65:35.36 | 9:08.44 | 295161 | 336304


Track 1

Filename L:MusicLosslessPsyTranceReleaseCosmosis - Fumbling For The Funky Frequency (Holophonic Rec. 2009) (Flac)1. Cosmosis - Beguiling Illusions.wav

Pre-gap length 0:00:02.00

Peak level 96.2 %
Track quality 100.0 %
Test CRC B06C5A2C
Copy CRC B06C5A2C
Track not present in AccurateRip database
Copy OK

Track 2

Filename L:MusicLosslessPsyTranceReleaseCosmosis - Fumbling For The Funky Frequency (Holophonic Rec. 2009) (Flac)2. Cosmosis - Self Discovery.wav

Pre-gap length 0:00:00.04

Peak level 93.0 %
Track quality 99.9 %
Test CRC C715CBA2
Copy CRC C715CBA2
Track not present in AccurateRip database
Copy OK

Track 3

Filename L:MusicLosslessPsyTranceReleaseCosmosis - Fumbling For The Funky Frequency (Holophonic Rec. 2009) (Flac)3. Cosmosis - Space Traveller.wav

Peak level 98.0 %
Track quality 99.9 %
Test CRC F78047D3
Copy CRC F78047D3
Track not present in AccurateRip database
Copy OK

Track 4

Filename L:MusicLosslessPsyTranceReleaseCosmosis - Fumbling For The Funky Frequency (Holophonic Rec. 2009) (Flac)4. Cosmosis - Siren Song.wav

Peak level 96.8 %
Track quality 99.9 %
Test CRC 0DB95EFC
Copy CRC 0DB95EFC
Track not present in AccurateRip database
Copy OK

Track 5

Filename L:MusicLosslessPsyTranceReleaseCosmosis - Fumbling For The Funky Frequency (Holophonic Rec. 2009) (Flac)5. Cosmosis - Take Flight (Cosmosis Mix).wav

Peak level 96.8 %
Track quality 100.0 %
Test CRC 462F9ED6
Copy CRC 462F9ED6
Track not present in AccurateRip database
Copy OK

Track 6

Filename L:MusicLosslessPsyTranceReleaseCosmosis - Fumbling For The Funky Frequency (Holophonic Rec. 2009) (Flac)6. Cosmosis - Samba Del Gringo.wav

Peak level 96.1 %
Track quality 99.9 %
Test CRC 926B03BB
Copy CRC 926B03BB
Track not present in AccurateRip database
Copy OK

Track 7

Filename L:MusicLosslessPsyTranceReleaseCosmosis - Fumbling For The Funky Frequency (Holophonic Rec. 2009) (Flac)7. Cosmosis - Empty Space (Cosmosis Mix).wav

Peak level 96.1 %
Track quality 99.9 %
Test CRC 0E2D5526
Copy CRC 0E2D5526
Track not present in AccurateRip database
Copy OK

Track 8

Filename L:MusicLosslessPsyTranceReleaseCosmosis - Fumbling For The Funky Frequency (Holophonic Rec. 2009) (Flac)8. Cosmosis - Beyond The Five Senses.wav

Peak level 96.9 %
Track quality 99.9 %
Test CRC 4290417E
Copy CRC 4290417E
Track not present in AccurateRip database
Copy OK

Track 9

Filename L:MusicLosslessPsyTranceReleaseCosmosis - Fumbling For The Funky Frequency (Holophonic Rec. 2009) (Flac)9. Cosmosis - The Eternal Now.wav

Peak level 95.1 %
Track quality 99.9 %
Test CRC 8B0AC663
Copy CRC 8B0AC663
Track not present in AccurateRip database
Copy OK


None of the tracks are present in the AccurateRip database

No errors occurred

End of status report
[/spoiler][spoiler="Log Audiochecker"]AUDIOCHECKER v2.0 beta (build 457) - by Dester - opdester@freemail.hu
~~~~~~~~~~~~~~~~~~~~~~~~~~~~~~~~~~
-=== DO NOT EDIT THIS FILE! ===-

Path: ...Cosmosis - Fumbling For The Funky Frequency (2009)

1 -=- 01. Cosmosis - Beguiling Illusions.flac -=- CDDA (100%)
2 -=- 02. Cosmosis - Self Discovery.flac -=- CDDA (100%)
3 -=- 03. Cosmosis - Space Traveller.flac -=- CDDA (100%)
4 -=- 04. Cosmosis - Siren Song.flac -=- CDDA (100%)
5 -=- 05. Cosmosis - Take Flight (Cosmosis Mix).flac -=- CDDA (100%)
6 -=- 06. Cosmosis - Samba Del Gringo.flac -=- CDDA (100%)
7 -=- 07. Cosmosis - Empty Space (Cosmosis Mix).flac -=- CDDA (100%)
8 -=- 08. Cosmosis - Beyond The Five Senses.flac -=- CDDA (100%)
9 -=- 09. Cosmosis - The Eternal Now.flac -=- CDDA (100%)

Summary 100,00% CDDA

149346996
[/spoiler]

Cosmosis - Fumbling For The Funky Frequency (2009)

Cosmosis - Fumbling For The Funky Frequency (2009)

Внимание! У вас нет прав для просмотра скрытого текста.


Исполнитель:: Cosmosis
Год:©2009



Внимание! После прослушивания , вы должны удалить скачанные файлы и приобрести лицензионные копии музыкальных материалов!

Другие новости по теме:

Уважаемый посетитель, Вы зашли на сайт как незарегистрированный пользователь.
Мы рекомендуем Вам зарегистрироваться либо войти на сайт под своим именем.

Комментарии:

Комментировать
Информация
Посетители, находящиеся в группе Гости, не могут оставлять комментарии к данной публикации.

ВХОД НА САЙТ

 


Расширенный поиск
Обратная связь
RSS новости

Рекомендуем

Фотогалерея

Фотогалерея исполнителей,групп с высоким разрешением...!

ФОТО ЗДЕСЬ| HERE >>>



Who`s Online

Сейчас на сайте: 6
Гостей: 6

Пользователи: 

- отсутствуют

Роботы: 

- отсутствуют

 Последние посетители: 

Статистика

Яндекс.Метрика

Рейтинг@Mail.ru



Rambler's Top100

Стили Музыки

New Age music
New Age musicНЬЮ-ЭЙДЖ (англ. new age music — музыка нового века), квазиинтеллектуальная коммерческая музыка 1980-х годов......Далее...
SOUTHERN ROCK
★ SOUTHERN ROCK Это очень мужская музыка. В ней ощущается и слышится влияние героев американского Юга подобных кап......Далее...
ROCK SOUNDTRACKS
В 80-е кино отнюдь не грешило однородностью. Оно отличалось завидной полистилистикой, но главным в нем было, пожалуй, на......Далее...
ФАБРИКА ЗВЕЗД
ФАБРИКА ЗВЕЗД — музыкальный телепроект по поиску и «раскрутке» молодых и талантливых поп-исполнителей. «Фабрика Звезд» я......Далее...
AOR
AORЗажигалки наизготовку! Если вы всю жизнь гадали,что же означают буквы А, О и R. то больше ломать голову вам не придет......Далее...
Trance
Trance, стиль современной танцевальной музыки. Очень похожий на эмбиент и эйсид-хаус, транс все же мягче, чем обычное те......Далее...
ФАНК \FUNK
Фанк FUNKФанк FUNK ФАНК (фанки) (англ. funk — испуганный), в поп-музыке одна из форм ритм-энд-блюза. Термин родился в д......Далее...
Skiffle
СКИФФЛ (англ. skiffle) музыка любительских и полупрофессиональных английских групп рубежа 50—60-х годов 20 века.СКИФФЛ (......Далее...
Ambient
Ambient(ЭМБИЕНТангл. , букв. — окружающий), стиль современной электронной музыки. Основан на использовании сэмплов живой......Далее...
BLUES ROCK
BLUES ROCK В начале 80-х блюз вновь пережил головокружительный подъем благодаря появлению нового поколения гитаристов-в......Далее...